Вы используете незарегистрированную версию компонента "Вкладки"!

Поиск

(Avant-Garde / Post-Bop) String Trio of New York - Gut Reaction - 2003, FLAC (image+.cue), lossless

Треклист:
String Trio of New York - Gut Reaction

Жанр: Avant-Garde / Post-Bop
Год выпуска диска: 2003
Производитель диска: OmniTone 12202; USA
Аудио кодек: FLAC
Тип рипа: image+.cue
Битрейт аудио: lossless
Продолжительность: 1:02:36
Треклист:
Rob Thomas: violin
James Emery: guitar
John Lindberg: bass
1. Upstart (James Emery)
Nature, Time, Patience: Nature (John Lindberg)
2. Nature
3. Time
4. Patience
5. Ode (James Emery)
In So Many Worlds (Dave Douglas)
6. Ecstatic
7. Mournful
8. In Praise
9. Offspring (James Emery)
Recorded live on 22-24 May 2001 at The Jazz Standard, New York
 
AAJ Review
Given their reputation for great live performances throughout their 25-year history, it's hard to believe that the String Trio of New York's 14th album is their first live release, but it's true. Gut Reaction is also the recording debut of the trio's newest member, violinist Rob Thomas, who joined stalwarts guitarist James Emery and bassist John Lindberg. Culled from three nights at the Jazz Standard, the trio proves that despite the lack of percussion, it's not just "chamber jazz" or "neo-classical" music - it swings with intensity.
The CD is built around two three-part suites, one composed by Lindberg, the other by trumpeter Dave Douglas. Lindberg's "Nature, Time, Patience" is a thematic piece that opens around a bowed-bass groove and quick, unison melody punctuations. It builds to faster tempo walking bass lines, which Thomas and Emery weave themselves around. But it is Lindberg - as it is in so many pieces - who holds the material together, giving it shape and rhythm. Douglas's "In So Many Worlds," written for pianist Jaki Byard, highlights his compositional nods to classical music, exploring wide dynamic range and strong, lyrical melodies. Comparing the trio's version and Douglas' own recorded version reveals how the trio extends the improvised sections to allow more solos, while still holding the song's form.
The remainder of the CD consists of three Emery originals. "Upstart," the opener, is a clever romp featuring Emery's clean picking style and a blurring solo incorporating fast strumming and clean single note runs. Conversely, "Ode" is a quiet ballad that shows the trio's more restrained, melodic side. The fast-paced "Offspring" closes the disc and showcases Thomas' fiery violin.
Gut Reaction is testimony to the String Trio of New York's repute for great live performances, which shows no signs of slowing down. ~ Sean Patrick Fitzell, AAJ
 
AMG Review
One of the longest running ensembles in modern jazz, the String Trio of New York has been in the biz for over 25 years. This release marks violinist Rob Thomas' first recording with the band. Captured live at New York City's Jazz Standard venue, this production features jazz trumpeter Dave Douglas' multi-part piece dedicated to the late pianist Jaki Byard, titled "In So Many Worlds." Otherwise, acoustic guitarist James Emery and double bassist John Lindberg share the remaining compositional credits. This group just about does it all. The trio swings hard sans a drummer, while also integrating odd tunings and avant free-form dialogues into this undeniably divergent track mix. Best of all, the group's improvisational abilities loom rather large here. Thomas' soaring gestures often complement Emery's ringing harmonics and Lindberg's fat-toned lines. Essentially, the musicians interrogate a variegated musical plane, awash with sudden deviations from the norm, intermixed with chamber-like qualities and cyclical passages. There are some sanguine moments amid the artists' complexly woven soundscapes and suspenseful modes of execution, as the players' synergy and wide-ranging scope of musicality stand as their trademarks. Hence, another superb effort by this time-honored outfit. ~ Glenn Astarita, AMG
 
EAC Report
Exact Audio Copy V0.99 prebeta 5 from 4. May 2009
EAC extraction logfile from 6. January 2010, 23:37
String Trio of New York / Gut Reaction
Used drive : hp DVD-RAM GH40L Adapter: 0 ID: 1
Read mode : Secure
Utilize accurate stream : Yes
Defeat audio cache : Yes
Make use of C2 pointers : No
Read offset correction : 667
Overread into Lead-In and Lead-Out : No
Fill up missing offset samples with silence : Yes
Delete leading and trailing silent blocks : No
Null samples used in CRC calculations : Yes
Used interface : Installed external ASPI interface
Used output format : User Defined Encoder
Selected bitrate : 1024 kBit/s
Quality : High
Add ID3 tag : No
Command line compressor : C:\Program Files\Exact Audio Copy\Flac\flac.exe
Additional command line options : -6 -V -T "ARTIST=%a" -T "TITLE=%t" -T "ALBUM=%g" -T "DATE=%y" -T "TRACKNUMBER=%n" -T "GENRE=%m" -T "COMMENT=EAC FLAC -6" %s
TOC of the extracted CD
Track | Start | Length | Start sector | End sector
---------------------------------------------------------
1 | 0:00.00 | 11:22.16 | 0 | 51165
2 | 11:22.16 | 6:29.60 | 51166 | 80400
3 | 17:52.01 | 8:40.19 | 80401 | 119419
4 | 26:32.20 | 6:46.50 | 119420 | 149919
5 | 33:18.70 | 5:51.23 | 149920 | 176267
6 | 39:10.18 | 4:21.74 | 176268 | 195916
7 | 43:32.17 | 5:40.10 | 195917 | 221426
8 | 49:12.27 | 6:15.00 | 221427 | 249551
9 | 55:27.27 | 7:08.42 | 249552 | 281693
Range status and errors
Selected range
Filename C:\Users\Igor\Music\eac\String Trio of New York - Gut Reaction.wav
Peak level 98.0 %
Range quality 100.0 %
Test CRC 67F63CD4
Copy CRC 67F63CD4
Copy OK
No errors occurred
AccurateRip summary
Track 1 not present in database
Track 2 not present in database
Track 3 not present in database
Track 4 not present in database
Track 5 not present in database
Track 6 not present in database
Track 7 not present in database
Track 8 not present in database
Track 9 not present in database
None of the tracks are present in the AccurateRip database
End of status report

рип собственный
Any questions -> support@pro-jazz.com. По всем вопросам пишите -> support@pro-jazz.com
02:41
170
Нет комментариев. Ваш будет первым!