Вы используете незарегистрированную версию компонента "Вкладки"!

Поиск

(Free Jazz, Avant-Garde, Free Improvisation) Michael Formanek, Tim Berne, Jeff Hirshfield: Loose Cannon - 1993, APE (image+.cue), lossless

(Free Jazz, Avant-Garde, Free Improvisation) Michael Formanek, Tim Berne, Jeff Hirshfield: Loose Cannon - 1993, APE (image+.cue), lossless
Треклист:
Michael Formanek, Tim Berne, Jeff Hirshfield: Loose Cannon
Жанр: Free Jazz, Avant-Garde, Free Improvisation
Год выпуска диска: 1993
Производитель диска: Soul Note, Italy
Аудио кодек: APE
Тип рипа: image+.cue
Битрейт аудио: lossless
Трэклист:
1. Almost Normal
2. The 12 1/2 % Solution
3. Fool's Paradise
4. Lowball
5. Broken
6. Beam Me Up
7. Fribrigade (for Djiango Bates)
8. Tilt
Доп. информация:
Tim Berne, alto saxophone, baritone saxophone
Michael Formanek, bass
Jeff Hirshfield, drums
 
Отчёт EAC
Exact Audio Copy V0.99 prebeta 4 from 23. January 2008
Отчёт EAC об извлечении, выполненном 30. марта 2009, 22:07
Michael Formanek, Tim Berne, Jeff Hirshfield / Loose Cannon
Дисковод: TSSTcorpCDDVDW SH-S203D Adapter: 3 ID: 0
Режим чтения : Достоверность
Использование точного потока : Да
Отключение кэша аудио : Да
Использование указателей C2 : Нет
Коррекция смещения при чтении : 6
Способность читать области Lead-in и Lead-out : Нет
Заполнение пропущенных сэмплов тишиной : Да
Удаление блоков с тишиной в начале и конце : Нет
При вычислениях CRC использовались нулевые сэмплы : Да
Интерфейс : Установленный внешний ASPI-интерфейс
Выходной формат : Внутренние WAV-операции
Формат сэмплов : 44.100 Гц; 16 бит; стерео
TOC извлечённого CD
Трек | Старт | Длительность | Начальный сектор | Конечный сектор
---------------------------------------------------------------------
1 | 0:00.33 | 6:26.35 | 33 | 29017
2 | 6:26.68 | 10:52.52 | 29018 | 77969
3 | 17:19.45 | 8:05.10 | 77970 | 114354
4 | 25:24.55 | 3:20.28 | 114355 | 129382
5 | 28:45.08 | 5:35.47 | 129383 | 154554
6 | 34:20.55 | 3:03.63 | 154555 | 168342
7 | 37:24.43 | 16:35.17 | 168343 | 242984
8 | 53:59.60 | 3:28.48 | 242985 | 258632
Характеристики диапазона извлечения и сообщения об ошибках
Выбранный диапазон
Имя файла F:\My Music\TMP\Michael Formanek, Tim Berne, Jeff Hirshfield - Loose Cannon.wav
Пиковый уровень 100.0 %
Качество диапазона 100.0 %
CRC копии C9302A1F
Копирование... OK
Ошибок не произошло
Конец отчёта
Any questions -> support@pro-jazz.com. По всем вопросам пишите -> support@pro-jazz.com
09:34
149
Нет комментариев. Ваш будет первым!