Вы используете незарегистрированную версию компонента "Вкладки"!

Поиск

(Free Jazz, Avant-Garde, Free Improvisation) Michael Formanek: Low Profile - 1994, APE (image+.cue), lossless

(Free Jazz, Avant-Garde, Free Improvisation) Michael Formanek: Low Profile - 1994, APE (image+.cue), lossless
Треклист:
Michael Formanek: Low Profile
Жанр: Free Jazz, Avant-Garde, Free Improvisation
Год выпуска диска: 1994
Производитель диска: ENJA
Аудио кодек: APE
Тип рипа: image+.cue
Битрейт аудио: lossless
Продолжительность: 74:34
Трэклист:
1. Groogly
2. Immaculate Deception
3. Rivers
4. Great Pains
5. Paradise Revisited
6. Isonychia
7. Shuddawuddacudda
8. Uncommon Ground
9. Signs of Life
10. Black Rose
11. Big Spirit People
Доп. информация:
Michael Formanek b, composer
Dave Douglas tp
Frank Ku-Umba Lacy tb
Tim Berne as, bari
Marty Ehrlich cl, b-cl, as, ss
Salvatore Bonafede p
Marvin "Smitty" Smith dr
 
Отчёт EAC
Exact Audio Copy V0.99 prebeta 4 from 23. January 2008
Отчёт EAC об извлечении, выполненном 31. марта 2009, 0:08
Michael Formanek / Low Profile
Дисковод: TSSTcorpCDDVDW SH-S203D Adapter: 3 ID: 0
Режим чтения : Достоверность
Использование точного потока : Да
Отключение кэша аудио : Да
Использование указателей C2 : Нет
Коррекция смещения при чтении : 6
Способность читать области Lead-in и Lead-out : Нет
Заполнение пропущенных сэмплов тишиной : Да
Удаление блоков с тишиной в начале и конце : Нет
При вычислениях CRC использовались нулевые сэмплы : Да
Интерфейс : Установленный внешний ASPI-интерфейс
Выходной формат : Внутренние WAV-операции
Формат сэмплов : 44.100 Гц; 16 бит; стерео
TOC извлечённого CD
Трек | Старт | Длительность | Начальный сектор | Конечный сектор
---------------------------------------------------------------------
1 | 0:00.32 | 5:39.00 | 32 | 25456
2 | 5:39.32 | 5:59.00 | 25457 | 52381
3 | 11:38.32 | 9:38.00 | 52382 | 95731
4 | 21:16.32 | 12:27.00 | 95732 | 151756
5 | 33:43.32 | 11:00.00 | 151757 | 201256
6 | 44:43.32 | 8:59.00 | 201257 | 241681
7 | 53:42.32 | 7:48.00 | 241682 | 276781
8 | 61:30.32 | 2:33.10 | 276782 | 288266
9 | 64:03.42 | 5:54.50 | 288267 | 314866
10 | 69:58.17 | 4:36.55 | 314867 | 335621
11 | 74:34.72 | 2:19.60 | 335622 | 346106
Характеристики диапазона извлечения и сообщения об ошибках
Выбранный диапазон
Имя файла F:\My Music\TMP\Michael Formanek - Low Profile.wav
Пиковый уровень 99.9 %
Качество диапазона 100.0 %
CRC копии B62BA6F1
Копирование... OK
Ошибок не произошло
Конец отчёта
Any questions -> support@pro-jazz.com. По всем вопросам пишите -> support@pro-jazz.com
09:35
96
Нет комментариев. Ваш будет первым!