Вы используете незарегистрированную версию компонента "Вкладки"!

Поиск

(Free Jazz, Avant-Garde, Free Improvisation) Joe Morris, Rob Brown, William Parker & Jackson Krall - Illuminate - 1995, APE (image+.cue), lossless

Треклист:
Joe Morris, Rob Brown, William Parker & Jackson Krall - Illuminate
Жанр: Free Jazz, Avant-Garde, Free Improvisation
Год выпуска диска: 1995
Производитель диска: Leo Records, UK (LEO LAB CD 008)
Аудио кодек: APE
Тип рипа: image+.cue
Битрейт аудио: lossless
Продолжительность: 53-30
Трэклист:
Results (11:54)
Illuminate (7:12)
Inklings (23:04)
Pivotal (11:13)
Доп. информация:
Joe Morris (g)
Rob Brown (alto s)
William Parker (b)
Jackson Krall (d)
Recorded 9 November 1993 at Tedesco Studios, Paramus, NJ.
 
eaclog
Exact Audio Copy V0.99 prebeta 4 from 23. January 2008
Отчёт EAC об извлечении, выполненном 13. декабря 2009, 15:22
Joe Morris / Illuminate
Дисковод: TSSTcorpCDDVDW SH-S203D Adapter: 3 ID: 0
Режим чтения : Достоверность
Использование точного потока : Да
Отключение кэша аудио : Да
Использование указателей C2 : Нет
Коррекция смещения при чтении : 6
Способность читать области Lead-in и Lead-out : Нет
Заполнение пропущенных сэмплов тишиной : Да
Удаление блоков с тишиной в начале и конце : Нет
При вычислениях CRC использовались нулевые сэмплы : Да
Интерфейс : Установленный внешний ASPI-интерфейс
Выходной формат : Внутренние WAV-операции
Формат сэмплов : 44.100 Гц; 16 бит; стерео
TOC извлечённого CD
Трек | Старт | Длительность | Начальный сектор | Конечный сектор
---------------------------------------------------------------------
1 | 0:00.32 | 11:54.40 | 32 | 53621
2 | 11:54.72 | 7:12.20 | 53622 | 86041
3 | 19:07.17 | 23:04.13 | 86042 | 189854
4 | 42:11.30 | 11:13.42 | 189855 | 240371
Характеристики диапазона извлечения и сообщения об ошибках
Выбранный диапазон
Имя файла E:\FOS\MISIC\Morris\Joe Morris - Illuminate - mmm\Joe Morris - Illuminate - 1995.wav
Пиковый уровень 100.0 %
Качество диапазона 100.0 %
CRC копии 0E25B575
Копирование... OK
Ошибок не произошло
Конец отчёта
Any questions -> support@pro-jazz.com. По всем вопросам пишите -> support@pro-jazz.com
17:16
111
Нет комментариев. Ваш будет первым!