Вы используете незарегистрированную версию компонента "Вкладки"!

Поиск

(Free Jazz / Avant-Garde) [CD] Rob Reddy's Honor System - Post-War Euphoria {Songlines Recordings SGL 1512-2, Canada} - 1996, FLAC (image+.cue), lossless

(Free Jazz / Avant-Garde) [CD] Rob Reddy's Honor System - Post-War Euphoria {Songlines Recordings SGL 1512-2, Canada} - 1996, FLAC (image+.cue), lossless
Треклист:
Rob Reddy's Honor System / Post-War Euphoria
Жанр: Free Jazz / Avant-Garde
Носитель: CD
Страна-производитель диска (релиза): Canada
Год издания: 1996
Издатель (лейбл): Songlines Recordings
Номер по каталогу: SGL 1512-2
Аудиокодек: FLAC (*.flac)
Тип рипа: image+.cue
Битрейт аудио: lossless
Продолжительность: 01:11:22
Источник (релизер): ivoronen
Наличие сканов в содержимом раздачи: front
Rob Reddy ~ soprano and alto saxophones
Eddie Allen ~ trumpet
Josh Roseman ~ trombone
Jef Lee Johnson ~ guitar
Dom Richards ~ bass
Pheeroan akLaff ~ drums
1. The Pipe Smoker
2. Post-War Euphoria
3. Same Old
4. Blind Spot
5. The Tall People
6. Up-South
7. Thanks
8. ...and then the Germans arrived
9. Cassidy's Spot on the Wall
 
Option Review
“At the risk of running my hyperbole account into the red, I’d venture to say that this is some of the most urgent, alive improvisational music I’ve heard in years.”
—John Baxter, Option
 
Лог создания рипа (EAC Log)
Exact Audio Copy V0.99 prebeta 4 from 23. January 2008
EAC extraction logfile from 8. March 2009, 18:48
Rob Reddy's Honor System / Post-War Euphoria
Used drive : TSSTcorpCD/DVDW SH-S182M Adapter: 2 ID: 2
Read mode : Secure
Utilize accurate stream : Yes
Defeat audio cache : Yes
Make use of C2 pointers : No
Read offset correction : 6
Overread into Lead-In and Lead-Out : No
Fill up missing offset samples with silence : Yes
Delete leading and trailing silent blocks : No
Null samples used in CRC calculations : Yes
Used interface : Installed external ASPI interface
Used output format : User Defined Encoder
Selected bitrate : 1024 kBit/s
Quality : High
Add ID3 tag : No
Command line compressor : C:\Program Files\Exact Audio Copy\FLAC\FLAC.EXE
Additional command line options : -8 -V -T "ARTIST=%a" -T "TITLE=%t" -T "ALBUM=%g" -T "DATE=%y" -T "TRACKNUMBER=%n" -T "GENRE=%m" -T "COMMENT=%e" %s -o %d
TOC of the extracted CD
Track | Start | Length | Start sector | End sector
---------------------------------------------------------
1 | 0:00.00 | 7:15.00 | 0 | 32624
2 | 7:15.00 | 5:27.57 | 32625 | 57206
3 | 12:42.57 | 10:25.03 | 57207 | 104084
4 | 23:07.60 | 0:42.15 | 104085 | 107249
5 | 23:50.00 | 15:45.47 | 107250 | 178171
6 | 39:35.47 | 12:39.58 | 178172 | 235154
7 | 52:15.30 | 8:53.02 | 235155 | 275131
8 | 61:08.32 | 8:46.58 | 275132 | 314639
9 | 69:55.15 | 1:26.27 | 314640 | 321116
Range status and errors
Selected range
Filename C:\Documents and Settings\Igor\My Documents\My Music\eac\Rob Reddy's Honor System - Post-War Euphoria.wav
Peak level 100.0 %
Range quality 100.0 %
Test CRC 7892CD19
Copy CRC 7892CD19
Copy OK
No errors occurred
AccurateRip summary
Track 1 not present in database
Track 2 not present in database
Track 3 not present in database
Track 4 not present in database
Track 5 not present in database
Track 6 not present in database
Track 7 not present in database
Track 8 not present in database
Track 9 not present in database
None of the tracks are present in the AccurateRip database
End of status report
 
Содержание индексной карты (.CUE)
REM GENRE Jazz
REM DATE 1996
REM DISCID 8610B909
REM COMMENT "ExactAudioCopy v0.99pb4"
PERFORMER "Rob Reddy's Honor System"
TITLE "Post-War Euphoria"
FILE "Rob Reddy's Honor System - Post-War Euphoria.flac" WAVE
TRACK 01 AUDIO
TITLE "The Pipe Smoker"
PERFORMER "Rob Reddy's Honor System"
INDEX 01 00:00:00
TRACK 02 AUDIO
TITLE "Post-War Euphoria"
PERFORMER "Rob Reddy's Honor System"
INDEX 01 07:15:00
TRACK 03 AUDIO
TITLE "Same Old"
PERFORMER "Rob Reddy's Honor System"
INDEX 01 12:42:57
TRACK 04 AUDIO
TITLE "Blind Spot"
PERFORMER "Rob Reddy's Honor System"
INDEX 00 23:06:30
INDEX 01 23:07:60
TRACK 05 AUDIO
TITLE "The Tall People"
PERFORMER "Rob Reddy's Honor System"
INDEX 01 23:50:00
TRACK 06 AUDIO
TITLE "Up-South"
PERFORMER "Rob Reddy's Honor System"
INDEX 00 39:31:32
INDEX 01 39:35:47
TRACK 07 AUDIO
TITLE "Thanks"
PERFORMER "Rob Reddy's Honor System"
INDEX 00 52:11:42
INDEX 01 52:15:30
TRACK 08 AUDIO
TITLE "...and then the Germans arrived"
PERFORMER "Rob Reddy's Honor System"
INDEX 01 61:08:32
TRACK 09 AUDIO
TITLE "Cassidy's Spot on the Wall"
PERFORMER "Rob Reddy's Honor System"
INDEX 00 69:51:57
INDEX 01 69:55:15
По всем вопросам пишите личное сообщение пользователю M0p94ok.
07:27
150
Нет комментариев. Ваш будет первым!