Вы используете незарегистрированную версию компонента "Вкладки"!

Поиск

(free jazz, avant-garde) [cd] Ivo Perelman & Matthew Shipp - Callas (2015), FLAC (tracks+.cue), lossless

(free jazz, avant-garde) [cd] Ivo Perelman & Matthew Shipp - Callas (2015), FLAC (tracks+.cue), lossless
Треклист:
(free jazz, avant-garde) [cd] Ivo Perelman & Matthew Shipp - Callas (2015), FLAC (tracks+.cue), lossless


Ivo Perelman & Matthew Shipp - Callas (2015)

Жанр:free jazz, avant-garde
Год выпуска: 2015
Издатель (лейбл):Leo Records / CD LR 728/729
Формат: FLAC (tracks+.cue)
Битрейт аудио: lossless
Продолжительность: 1`17`46
Источник: what.cd
 
Disc 1


Disc 1

1 Lucia 5:59
2 Tosca 5:03
3 Rosina 4:56
4 Mimi 6:19
5 Medea 5:28
6 Violetta 5:42
7 Leonora 6:03

 
.log
Exact Audio Copy V1.0 beta 3 from 29. August 2011
EAC extraction logfile from 27. November 2015, 23:42
Ivo Perelman & Matthew Shipp / Callas Disc 1
Used drive : HL-DT-STDVDRAM SP80NB60 Adapter: 0 ID: 0
Read mode : Secure
Utilize accurate stream : Yes
Defeat audio cache : Yes
Make use of C2 pointers : No
Read offset correction : 6
Overread into Lead-In and Lead-Out : No
Fill up missing offset samples with silence : Yes
Delete leading and trailing silent blocks : No
Null samples used in CRC calculations : Yes
Used interface : Native Win32 interface for Win NT & 2000
Gap handling : Appended to previous track
Used output format : User Defined Encoder
Selected bitrate : 1024 kBit/s
Quality : High
Add ID3 tag : No
Command line compressor : C:\Program Files (x86)\FLAC\flac.exe
Additional command line options : -8 -V -T "ARTIST=%artist%" -T "TITLE=%title%" -T "ALBUM=%albumtitle%" -T "DATE=%year%" -T "TRACKNUMBER=%tracknr%" -T "GENRE=%genre%" -T "PERFORMER=%albuminterpret%" -T "COMPOSER=%composer%" %haslyrics%--tag-from-file=LYRICS="%lyricsfile%"%haslyrics% -T "ALBUMARTIST=%albumartist%" -T "DISCNUMBER=%cdnumber%" -T "TOTALDISCS=%totalcds%" -T "TOTALTRACKS=%numtracks%" -T "COMMENT=%comment%" %source% -o %dest%
TOC of the extracted CD
Track | Start | Length | Start sector | End sector
---------------------------------------------------------
1 | 0:00.00 | 5:58.50 | 0 | 26899
2 | 5:58.50 | 5:03.05 | 26900 | 49629
3 | 11:01.55 | 4:55.40 | 49630 | 71794
4 | 15:57.20 | 6:18.72 | 71795 | 100216
5 | 22:16.17 | 5:29.40 | 100217 | 124931
6 | 27:45.57 | 5:41.38 | 124932 | 150544
7 | 33:27.20 | 6:00.63 | 150545 | 177607
Track 1
Filename C:\EAC Rips\Ivo Perelman & Matthew Shipp - Callas (2015) [FLAC]\01 Lucia.wav
Pre-gap length 0:00:02.00
Peak level 100.0 %
Extraction speed 1.2 X
Track quality 100.0 %
Test CRC E0BD9087
Copy CRC E0BD9087
Track not present in AccurateRip database
Copy OK
Track 2
Filename C:\EAC Rips\Ivo Perelman & Matthew Shipp - Callas (2015) [FLAC]\02 Tosca.wav
Pre-gap length 0:00:02.00
Peak level 100.0 %
Extraction speed 1.4 X
Track quality 100.0 %
Test CRC A3D4B9B1
Copy CRC A3D4B9B1
Track not present in AccurateRip database
Copy OK
Track 3
Filename C:\EAC Rips\Ivo Perelman & Matthew Shipp - Callas (2015) [FLAC]\03 Rosina.wav
Pre-gap length 0:00:02.00
Peak level 100.0 %
Extraction speed 1.5 X
Track quality 100.0 %
Test CRC C9752D3C
Copy CRC C9752D3C
Track not present in AccurateRip database
Copy OK
Track 4
Filename C:\EAC Rips\Ivo Perelman & Matthew Shipp - Callas (2015) [FLAC]\04 Mimi.wav
Pre-gap length 0:00:02.00
Peak level 100.0 %
Extraction speed 1.7 X
Track quality 100.0 %
Test CRC 9DB03185
Copy CRC 9DB03185
Track not present in AccurateRip database
Copy OK
Track 5
Filename C:\EAC Rips\Ivo Perelman & Matthew Shipp - Callas (2015) [FLAC]\05 Medea.wav
Pre-gap length 0:00:02.00
Peak level 100.0 %
Extraction speed 1.8 X
Track quality 100.0 %
Test CRC 15CA9731
Copy CRC 15CA9731
Track not present in AccurateRip database
Copy OK
Track 6
Filename C:\EAC Rips\Ivo Perelman & Matthew Shipp - Callas (2015) [FLAC]\06 Violetta.wav
Pre-gap length 0:00:02.00
Peak level 100.0 %
Extraction speed 2.0 X
Track quality 100.0 %
Test CRC AB82EA8D
Copy CRC AB82EA8D
Track not present in AccurateRip database
Copy OK
Track 7
Filename C:\EAC Rips\Ivo Perelman & Matthew Shipp - Callas (2015) [FLAC]\07 Leonora.wav
Pre-gap length 0:00:02.00
Peak level 100.0 %
Extraction speed 2.1 X
Track quality 100.0 %
Test CRC 18946AAF
Copy CRC 18946AAF
Track not present in AccurateRip database
Copy OK
None of the tracks are present in the AccurateRip database
No errors occurred
End of status report
---- CUETools DB Plugin V2.1.3
[CTDB TOCID: gg408RZrtmhW9cxJLLqmvcwxjzk-] disk not present in database, Submit result: gg408RZrtmhW9cxJLLqmvcwxjzk- has been uploaded
==== Log checksum ECB096B9C9F0F0D0F4C7E1EC34FEA0FE8C06896B30C58D1BEAE0A7C37933C681 ====
 
.cue
REM DATE 2015
REM DISCID 5F094007
REM COMMENT "ExactAudioCopy v1.0b3"
PERFORMER "Ivo Perelman & Matthew Shipp"
TITLE "Callas Disc 1"
FILE "01 Lucia.wav" WAVE
TRACK 01 AUDIO
TITLE "Lucia"
PERFORMER "Ivo Perelman & Matthew Shipp"
FLAGS DCP
INDEX 01 00:00:00
TRACK 02 AUDIO
TITLE "Tosca"
PERFORMER "Ivo Perelman & Matthew Shipp"
FLAGS DCP
INDEX 00 05:56:50
FILE "02 Tosca.wav" WAVE
INDEX 01 00:00:00
TRACK 03 AUDIO
TITLE "Rosina"
PERFORMER "Ivo Perelman & Matthew Shipp"
FLAGS DCP
INDEX 00 05:01:05
FILE "03 Rosina.wav" WAVE
INDEX 01 00:00:00
TRACK 04 AUDIO
TITLE "Mimi"
PERFORMER "Ivo Perelman & Matthew Shipp"
FLAGS DCP
INDEX 00 04:53:40
FILE "04 Mimi.wav" WAVE
INDEX 01 00:00:00
TRACK 05 AUDIO
TITLE "Medea"
PERFORMER "Ivo Perelman & Matthew Shipp"
FLAGS DCP
INDEX 00 06:16:72
FILE "05 Medea.wav" WAVE
INDEX 01 00:00:00
TRACK 06 AUDIO
TITLE "Violetta"
PERFORMER "Ivo Perelman & Matthew Shipp"
FLAGS DCP
INDEX 00 05:27:40
FILE "06 Violetta.wav" WAVE
INDEX 01 00:00:00
TRACK 07 AUDIO
TITLE "Leonora"
PERFORMER "Ivo Perelman & Matthew Shipp"
FLAGS DCP
INDEX 00 05:39:38
FILE "07 Leonora.wav" WAVE
INDEX 01 00:00:00
 
Disc 2


Disc 2

2 Aida 4:01
3 Maddalena 8:20
4 Turandot 4:15
5 Abigaille 0:59
6 Norma 4:15
7 Aleeste 3:30
8 Louise 4:23
9 Giulia 5:31

 
.log
Exact Audio Copy V1.0 beta 3 from 29. August 2011
EAC extraction logfile from 28. November 2015, 0:39
Ivo Perelman & Matthew Shipp / Callas DIsc 2
Used drive : HL-DT-STDVDRAM SP80NB60 Adapter: 0 ID: 0
Read mode : Secure
Utilize accurate stream : Yes
Defeat audio cache : Yes
Make use of C2 pointers : No
Read offset correction : 6
Overread into Lead-In and Lead-Out : No
Fill up missing offset samples with silence : Yes
Delete leading and trailing silent blocks : No
Null samples used in CRC calculations : Yes
Used interface : Native Win32 interface for Win NT & 2000
Gap handling : Appended to previous track
Used output format : User Defined Encoder
Selected bitrate : 1024 kBit/s
Quality : High
Add ID3 tag : No
Command line compressor : C:\Program Files (x86)\FLAC\flac.exe
Additional command line options : -8 -V -T "ARTIST=%artist%" -T "TITLE=%title%" -T "ALBUM=%albumtitle%" -T "DATE=%year%" -T "TRACKNUMBER=%tracknr%" -T "GENRE=%genre%" -T "PERFORMER=%albuminterpret%" -T "COMPOSER=%composer%" %haslyrics%--tag-from-file=LYRICS="%lyricsfile%"%haslyrics% -T "ALBUMARTIST=%albumartist%" -T "DISCNUMBER=%cdnumber%" -T "TOTALDISCS=%totalcds%" -T "TOTALTRACKS=%numtracks%" -T "COMMENT=%comment%" %source% -o %dest%
TOC of the extracted CD
Track | Start | Length | Start sector | End sector
---------------------------------------------------------
1 | 0:00.00 | 3:25.22 | 0 | 15396
2 | 3:25.22 | 4:01.24 | 15397 | 33495
3 | 7:26.46 | 8:20.31 | 33496 | 71026
4 | 15:47.02 | 4:14.36 | 71027 | 90112
5 | 20:01.38 | 0:38.38 | 90113 | 93000
6 | 20:40.01 | 4:15.03 | 93001 | 112128
7 | 24:55.04 | 3:29.43 | 112129 | 127846
8 | 28:24.47 | 4:24.64 | 127847 | 147710
9 | 32:49.36 | 5:28.61 | 147711 | 172371
Track 1
Filename C:\EAC Rips\Ivo Perelman & Matthew Shipp - Callas (2015) [FLAC]\01 Amelia.wav
Pre-gap length 0:00:02.00
Peak level 100.0 %
Extraction speed 1.1 X
Track quality 100.0 %
Test CRC 93B3887A
Copy CRC 93B3887A
Track not present in AccurateRip database
Copy OK
Track 2
Filename C:\EAC Rips\Ivo Perelman & Matthew Shipp - Callas (2015) [FLAC]\02 Aida.wav
Pre-gap length 0:00:02.00
Peak level 100.0 %
Extraction speed 1.1 X
Track quality 99.9 %
Test CRC 45724211
Copy CRC 45724211
Track not present in AccurateRip database
Copy OK
Track 3
Filename C:\EAC Rips\Ivo Perelman & Matthew Shipp - Callas (2015) [FLAC]\03 Maddalena.wav
Pre-gap length 0:00:02.00
Peak level 100.0 %
Extraction speed 1.5 X
Track quality 100.0 %
Test CRC 4FC01689
Copy CRC 4FC01689
Track not present in AccurateRip database
Copy OK
Track 4
Filename C:\EAC Rips\Ivo Perelman & Matthew Shipp - Callas (2015) [FLAC]\04 Turandot.wav
Pre-gap length 0:00:02.00
Peak level 87.7 %
Extraction speed 1.6 X
Track quality 100.0 %
Test CRC E6900139
Copy CRC E6900139
Track not present in AccurateRip database
Copy OK
Track 5
Filename C:\EAC Rips\Ivo Perelman & Matthew Shipp - Callas (2015) [FLAC]\05 Abigaille.wav
Pre-gap length 0:00:02.00
Peak level 100.0 %
Extraction speed 0.6 X
Track quality 99.7 %
Test CRC 240A1E4C
Copy CRC 240A1E4C
Track not present in AccurateRip database
Copy OK
Track 6
Filename C:\EAC Rips\Ivo Perelman & Matthew Shipp - Callas (2015) [FLAC]\06 Norma.wav
Pre-gap length 0:00:02.00
Peak level 88.9 %
Extraction speed 1.7 X
Track quality 100.0 %
Test CRC 470D6F8F
Copy CRC 470D6F8F
Track not present in AccurateRip database
Copy OK
Track 7
Filename C:\EAC Rips\Ivo Perelman & Matthew Shipp - Callas (2015) [FLAC]\07 Alceste.wav
Pre-gap length 0:00:02.00
Peak level 100.0 %
Extraction speed 1.8 X
Track quality 100.0 %
Test CRC E55B9504
Copy CRC E55B9504
Track not present in AccurateRip database
Copy OK
Track 8
Filename C:\EAC Rips\Ivo Perelman & Matthew Shipp - Callas (2015) [FLAC]\08 Louise.wav
Pre-gap length 0:00:02.00
Peak level 100.0 %
Extraction speed 1.9 X
Track quality 100.0 %
Test CRC F03AABE7
Copy CRC F03AABE7
Track not present in AccurateRip database
Copy OK
Track 9
Filename C:\EAC Rips\Ivo Perelman & Matthew Shipp - Callas (2015) [FLAC]\09 Giulia.wav
Pre-gap length 0:00:02.00
Peak level 92.0 %
Extraction speed 2.1 X
Track quality 100.0 %
Test CRC ECC2449F
Copy CRC ECC2449F
Track not present in AccurateRip database
Copy OK
None of the tracks are present in the AccurateRip database
No errors occurred
End of status report
---- CUETools DB Plugin V2.1.3
[CTDB TOCID: u5uEW7FuMNPDQsHKLd0FN8qa790-] disk not present in database, Submit result: u5uEW7FuMNPDQsHKLd0FN8qa790- has been uploaded
==== Log checksum 1302063855685502AB9E1F61A08DC2D0251BE5270A9BB1077707150A7A313D45 ====
 
.cue
REM DATE 2015
REM DISCID 7508FA09
REM COMMENT "ExactAudioCopy v1.0b3"
PERFORMER "Ivo Perelman & Matthew Shipp"
TITLE "Callas DIsc 2"
FILE "01 Amelia.wav" WAVE
TRACK 01 AUDIO
TITLE "Amelia"
PERFORMER "Ivo Perelman & Matthew Shipp"
FLAGS DCP
INDEX 01 00:00:00
TRACK 02 AUDIO
TITLE "Aida"
PERFORMER "Ivo Perelman & Matthew Shipp"
FLAGS DCP
INDEX 00 03:23:22
FILE "02 Aida.wav" WAVE
INDEX 01 00:00:00
TRACK 03 AUDIO
TITLE "Maddalena"
PERFORMER "Ivo Perelman & Matthew Shipp"
FLAGS DCP
INDEX 00 03:59:24
FILE "03 Maddalena.wav" WAVE
INDEX 01 00:00:00
TRACK 04 AUDIO
TITLE "Turandot"
PERFORMER "Ivo Perelman & Matthew Shipp"
FLAGS DCP
INDEX 00 08:18:31
FILE "04 Turandot.wav" WAVE
INDEX 01 00:00:00
TRACK 05 AUDIO
TITLE "Abigaille"
PERFORMER "Ivo Perelman & Matthew Shipp"
FLAGS DCP
INDEX 00 04:12:36
FILE "05 Abigaille.wav" WAVE
INDEX 01 00:00:00
TRACK 06 AUDIO
TITLE "Norma"
PERFORMER "Ivo Perelman & Matthew Shipp"
FLAGS DCP
INDEX 00 00:36:38
FILE "06 Norma.wav" WAVE
INDEX 01 00:00:00
TRACK 07 AUDIO
TITLE "Alceste"
PERFORMER "Ivo Perelman & Matthew Shipp"
FLAGS DCP
INDEX 00 04:13:03
FILE "07 Alceste.wav" WAVE
INDEX 01 00:00:00
TRACK 08 AUDIO
TITLE "Louise"
PERFORMER "Ivo Perelman & Matthew Shipp"
FLAGS DCP
INDEX 00 03:27:43
FILE "08 Louise.wav" WAVE
INDEX 01 00:00:00
TRACK 09 AUDIO
TITLE "Giulia"
PERFORMER "Ivo Perelman & Matthew Shipp"
FLAGS DCP
INDEX 00 04:22:64
FILE "09 Giulia.wav" WAVE
INDEX 01 00:00:00
http://www.discogs.com/Ivo-Perelman-Matthew-Shipp-Callas/release/7032109
другие релизы
По всем вопросам пишите личное сообщение пользователю M0p94ok.
17:27
235
Нет комментариев. Ваш будет первым!