Поиск

(Avant-Garde Jazz, Free Improvisation) [CD] Archie Shepp - Live In San Francisco (1966) - 2015, FLAC (tracks+.cue), lossless

(Avant-Garde Jazz, Free Improvisation) [CD] Archie Shepp - Live In San Francisco (1966) - 2015, FLAC (tracks+.cue), lossless
Треклист:
Archie Shepp - Live In San Francisco (1966) Жанр: Avant-Garde Jazz, Free Improvisation
Носитель: CD
Страна-производитель диска: Japan
Год издания: 2015
Издатель (лейбл): Impulse!/Verve/Universal Music Japan
Номер по каталогу: UCCI-9269
Аудиокодек: FLAC (*.flac)
Тип рипа: tracks+.cue
Битрейт аудио: lossless
Продолжительность: 34:08
Rip by ruskaval
Наличие сканов в содержимом раздачи: да
Треклист:
01. Keep Your Heart Right (1:18)
02. The Lady Sings The Blues (7:32)
03. Sylvia (5:37)
04. The Wedding (2:57)
05. Wherever June Bugs Go (10:26)
06. In A Sentimental Mood (6:18)
Personnel:
Archie Shepp - ts, p
Roswell Rudd - tb
Donald Garrett - b
Lewis Worrell - b
Beaver Harris - d
 
 
Лог создания рипа
Exact Audio Copy V1.1 from 23. June 2015
EAC extraction logfile from 30. November 2015, 23:26
Archie Shepp / Live In San Francisco
Used drive : TSSTcorpCDDVDW SE-208DB Adapter: 7 ID: 0
Read mode : Secure
Utilize accurate stream : Yes
Defeat audio cache : Yes
Make use of C2 pointers : No
Read offset correction : 6
Overread into Lead-In and Lead-Out : No
Fill up missing offset samples with silence : Yes
Delete leading and trailing silent blocks : No
Null samples used in CRC calculations : Yes
Used interface : Installed external ASPI interface
Gap handling : Appended to previous track
Used output format : User Defined Encoder
Selected bitrate : 1024 kBit/s
Quality : High
Add ID3 tag : No
Command line compressor : C:\Program Files (x86)\FLAC Frontend\tools\flac.exe
Additional command line options : -8 -V -T "ARTIST=%artist%" -T "TITLE=%title%" -T "ALBUM=%albumtitle%" -T "DATE=%year%" -T "TRACKNUMBER=%tracknr%" -T "TOTALTRACKS=%numtracks%" -T "GENRE=%genre%" -T "ALBUMARTIST=%albumartist%" -T "ALBUM ARTIST=%albumartist%" -T "COMMENT=EAC Secure Mode, Test & Copy, AccurateRip, FLAC -8" %source%
TOC of the extracted CD
Track | Start | Length | Start sector | End sector
---------------------------------------------------------
1 | 0:00.00 | 1:18.32 | 0 | 5881
2 | 1:18.32 | 7:31.60 | 5882 | 39766
3 | 8:50.17 | 5:37.00 | 39767 | 65041
4 | 14:27.17 | 2:56.50 | 65042 | 78291
5 | 17:23.67 | 10:25.70 | 78292 | 125236
6 | 27:49.62 | 6:17.63 | 125237 | 153574
Track 1
Filename M:\_EAC\Archie Shepp - Live In San Francisco (1966) [FLAC] {2015 Japan Impulse! Classics 50 Series}\01 - Keep Your Heart Right.wav
Pre-gap length 0:00:02.00
Peak level 58.2 %
Extraction speed 1.9 X
Track quality 100.0 %
Test CRC D6BB0870
Copy CRC D6BB0870
Accurately ripped (confidence 2) [F85525E5] (AR v2)
Copy OK
Track 2
Filename M:\_EAC\Archie Shepp - Live In San Francisco (1966) [FLAC] {2015 Japan Impulse! Classics 50 Series}\02 - The Lady Sings The Blues.wav
Pre-gap length 0:00:01.26
Peak level 67.4 %
Extraction speed 3.0 X
Track quality 100.0 %
Test CRC 59EC0E04
Copy CRC 59EC0E04
Accurately ripped (confidence 2) [E6D9A21D] (AR v2)
Copy OK
Track 3
Filename M:\_EAC\Archie Shepp - Live In San Francisco (1966) [FLAC] {2015 Japan Impulse! Classics 50 Series}\03 - Sylvia.wav
Pre-gap length 0:00:01.41
Peak level 50.0 %
Extraction speed 2.9 X
Track quality 99.9 %
Test CRC 1694F0C3
Copy CRC 1694F0C3
Accurately ripped (confidence 2) [CAAF52B2] (AR v2)
Copy OK
Track 4
Filename M:\_EAC\Archie Shepp - Live In San Francisco (1966) [FLAC] {2015 Japan Impulse! Classics 50 Series}\04 - The Wedding.wav
Pre-gap length 0:00:01.29
Peak level 40.2 %
Extraction speed 3.3 X
Track quality 100.0 %
Test CRC 401AA000
Copy CRC 401AA000
Accurately ripped (confidence 2) [910AD2EF] (AR v2)
Copy OK
Track 5
Filename M:\_EAC\Archie Shepp - Live In San Francisco (1966) [FLAC] {2015 Japan Impulse! Classics 50 Series}\05 - Wherever June Bugs Go.wav
Pre-gap length 0:00:01.41
Peak level 62.3 %
Extraction speed 3.9 X
Track quality 100.0 %
Test CRC D9F9703D
Copy CRC D9F9703D
Accurately ripped (confidence 2) [7B9844AE] (AR v2)
Copy OK
Track 6
Filename M:\_EAC\Archie Shepp - Live In San Francisco (1966) [FLAC] {2015 Japan Impulse! Classics 50 Series}\06 - In A Sentimental Mood.wav
Pre-gap length 0:00:01.34
Peak level 58.4 %
Extraction speed 3.8 X
Track quality 99.9 %
Test CRC 4100CE81
Copy CRC 4100CE81
Accurately ripped (confidence 2) [CAD6BD69] (AR v2)
Copy OK
All tracks accurately ripped
No errors occurred
End of status report
==== Log checksum E7C901BD93D8281328BDC1AE9E5D05315E23D45E69B6F53603692CA1A7EAB559 ====
 
Содержание индексной карты (.CUE)
REM GENRE Jazz
REM DATE 1966
REM DISCID 4407FF06
REM COMMENT "ExactAudioCopy v1.1"
PERFORMER "Archie Shepp"
TITLE "Live In San Francisco"
FILE "01 - Keep Your Heart Right.wav" WAVE
TRACK 01 AUDIO
TITLE "Keep Your Heart Right"
PERFORMER "Archie Shepp"
INDEX 01 00:00:00
TRACK 02 AUDIO
TITLE "The Lady Sings The Blues"
PERFORMER "Archie Shepp"
INDEX 00 01:17:06
FILE "02 - The Lady Sings The Blues.wav" WAVE
INDEX 01 00:00:00
TRACK 03 AUDIO
TITLE "Sylvia"
PERFORMER "Archie Shepp"
INDEX 00 07:30:19
FILE "03 - Sylvia.wav" WAVE
INDEX 01 00:00:00
TRACK 04 AUDIO
TITLE "The Wedding"
PERFORMER "Archie Shepp"
INDEX 00 05:35:46
FILE "04 - The Wedding.wav" WAVE
INDEX 01 00:00:00
TRACK 05 AUDIO
TITLE "Wherever June Bugs Go"
PERFORMER "Archie Shepp"
INDEX 00 02:55:09
FILE "05 - Wherever June Bugs Go.wav" WAVE
INDEX 01 00:00:00
TRACK 06 AUDIO
TITLE "In A Sentimental Mood"
PERFORMER "Archie Shepp"
INDEX 00 10:24:36
FILE "06 - In A Sentimental Mood.wav" WAVE
INDEX 01 00:00:00
По всем вопросам пишите личное сообщение пользователю M0p94ok.
17:27
391
Нет комментариев. Ваш будет первым!