Вы используете незарегистрированную версию компонента "Вкладки"!

Поиск

(free jazz, avant-garde) Archie Shepp & The New York Contemporary Five 1963, FLAC (tracks+.cue), lossless

(free jazz, avant-garde) Archie Shepp & The New York Contemporary Five 1963, FLAC (tracks+.cue), lossless
Треклист:

Archie Shepp & The New York Contemporary Five 1963

Жанр: free jazz, avant-garde
Год издания диска: 1963
Аудиокодек: FLAC (*.flac)
Тип рипа: tracks+.cue
Битрейт аудио: lossless
Продолжительность: 1`11`54
Источник (релизер): what.cd
Наличие сканов в содержимом раздачи: нет
AMG review: http://www.allmusic.com/cg/amg.dll?p=amg&sql=10:kcfuxqqgldae
Треклист:
01 - Consequences.flac
02 - Monk's Mood.flac
03 - Emotions.flac
04 - Wo Wo.flac
05 - Trio.flac
06 - Crepescule With Nellie.flac
07 - O.C..flac
08 - When Will The Blues Leave.flac
09 - The Funeral.flac
10 - Mick (Incl. Ezz-thetic).flac
 
Лог создания рипа
Exact Audio Copy V0.99 prebeta 4 from 23. January 2008
EAC extraction logfile from 21. May 2008, 13:32
Archie Shepp / Archie Shepp & The New York Contemporary Five
Used drive : _NEC DVD_RW ND-3520A Adapter: 1 ID: 0
Read mode : Secure
Utilize accurate stream : Yes
Defeat audio cache : Yes
Make use of C2 pointers : No
Read offset correction : 48
Overread into Lead-In and Lead-Out : No
Fill up missing offset samples with silence : Yes
Delete leading and trailing silent blocks : No
Null samples used in CRC calculations : Yes
Used interface : Installed external ASPI interface
Gap handling : Appended to previous track
Used output format : User Defined Encoder
Selected bitrate : 1024 kBit/s
Quality : High
Add ID3 tag : No
Command line compressor : C:\Program Files\FLAC\flac.exe
Additional command line options : -8 -V -T "ARTIST=%a" -T "TITLE=%t" -T "ALBUM=%g" -T "DATE=%y" -T "TRACKNUMBER=%n" -T "GENRE=%m" -T "COMMENT=EAC FLAC -8" %s
TOC of the extracted CD
Track | Start | Length | Start sector | End sector
---------------------------------------------------------
1 | 0:00.00 | 8:38.57 | 0 | 38906
2 | 8:38.57 | 2:29.73 | 38907 | 50154
3 | 11:08.55 | 8:44.15 | 50155 | 89469
4 | 19:52.70 | 5:51.27 | 89470 | 115821
5 | 25:44.22 | 15:28.30 | 115822 | 185451
6 | 41:12.52 | 2:16.18 | 185452 | 195669
7 | 43:28.70 | 6:42.32 | 195670 | 225851
8 | 50:11.27 | 8:57.68 | 225852 | 266194
9 | 59:09.20 | 5:05.00 | 266195 | 289069
10 | 64:14.20 | 7:39.25 | 289070 | 323519
Track 1
Filename C:\Documents and Settings\All Users\Documents\Uploads\P\Archie Shepp & The New York Contemporary Five (1963) [FLAC]\01 - Consequences.wav
Pre-gap length 0:00:02.00
Peak level 72.6 %
Track quality 100.0 %
Test CRC 35102734
Copy CRC 35102734
Track not present in AccurateRip database
Copy OK
Track 2
Filename C:\Documents and Settings\All Users\Documents\Uploads\P\Archie Shepp & The New York Contemporary Five (1963) [FLAC]\02 - Monk's Mood.wav
Peak level 64.4 %
Track quality 100.0 %
Test CRC DB320FE1
Copy CRC DB320FE1
Track not present in AccurateRip database
Copy OK
Track 3
Filename C:\Documents and Settings\All Users\Documents\Uploads\P\Archie Shepp & The New York Contemporary Five (1963) [FLAC]\03 - Emotions.wav
Peak level 69.9 %
Track quality 99.9 %
Test CRC C9BDCCD4
Copy CRC C9BDCCD4
Track not present in AccurateRip database
Copy OK
Track 4
Filename C:\Documents and Settings\All Users\Documents\Uploads\P\Archie Shepp & The New York Contemporary Five (1963) [FLAC]\04 - Wo Wo.wav
Peak level 70.0 %
Track quality 100.0 %
Test CRC 7F28FAA8
Copy CRC 7F28FAA8
Track not present in AccurateRip database
Copy OK
Track 5
Filename C:\Documents and Settings\All Users\Documents\Uploads\P\Archie Shepp & The New York Contemporary Five (1963) [FLAC]\05 - Trio.wav
Peak level 90.5 %
Track quality 99.9 %
Test CRC 74B26DCD
Copy CRC 74B26DCD
Track not present in AccurateRip database
Copy OK
Track 6
Filename C:\Documents and Settings\All Users\Documents\Uploads\P\Archie Shepp & The New York Contemporary Five (1963) [FLAC]\06 - Crepescule With Nellie.wav
Peak level 74.4 %
Track quality 100.0 %
Test CRC 45CB794A
Copy CRC 45CB794A
Track not present in AccurateRip database
Copy OK
Track 7
Filename C:\Documents and Settings\All Users\Documents\Uploads\P\Archie Shepp & The New York Contemporary Five (1963) [FLAC]\07 - O.C..wav
Pre-gap length 0:00:00.40
Peak level 70.6 %
Track quality 99.9 %
Test CRC 2C6886C5
Copy CRC 2C6886C5
Track not present in AccurateRip database
Copy OK
Track 8
Filename C:\Documents and Settings\All Users\Documents\Uploads\P\Archie Shepp & The New York Contemporary Five (1963) [FLAC]\08 - When Will The Blues Leave.wav
Pre-gap length 0:00:00.33
Peak level 80.4 %
Track quality 99.9 %
Test CRC 372BEB32
Copy CRC 372BEB32
Track not present in AccurateRip database
Copy OK
Track 9
Filename C:\Documents and Settings\All Users\Documents\Uploads\P\Archie Shepp & The New York Contemporary Five (1963) [FLAC]\09 - The Funeral.wav
Peak level 71.5 %
Track quality 99.9 %
Test CRC EA4F1E4E
Copy CRC EA4F1E4E
Track not present in AccurateRip database
Copy OK
Track 10
Filename C:\Documents and Settings\All Users\Documents\Uploads\P\Archie Shepp & The New York Contemporary Five (1963) [FLAC]\10 - Mick (Incl. Ezz-thetic).wav
Peak level 82.2 %
Track quality 100.0 %
Test CRC 639D499C
Copy CRC 639D499C
Track not present in AccurateRip database
Copy OK
None of the tracks are present in the AccurateRip database
No errors occurred
End of status report
 
Содержание индексной карты (.CUE)
REM GENRE Jazz
REM DATE 1963
REM DISCID 7A10D90A
REM COMMENT "ExactAudioCopy v0.99pb4"
PERFORMER "Archie Shepp"
TITLE "Archie Shepp & The New York Contemporary Five"
FILE "01 - Consequences.wav" WAVE
TRACK 01 AUDIO
TITLE "Consequences"
PERFORMER "Archie Shepp"
INDEX 01 00:00:00
FILE "02 - Monk's Mood.wav" WAVE
TRACK 02 AUDIO
TITLE "Monk's Mood"
PERFORMER "Archie Shepp"
INDEX 01 00:00:00
FILE "03 - Emotions.wav" WAVE
TRACK 03 AUDIO
TITLE "Emotions"
PERFORMER "Archie Shepp"
INDEX 01 00:00:00
FILE "04 - Wo Wo.wav" WAVE
TRACK 04 AUDIO
TITLE "Wo Wo"
PERFORMER "Archie Shepp"
INDEX 01 00:00:00
FILE "05 - Trio.wav" WAVE
TRACK 05 AUDIO
TITLE "Trio"
PERFORMER "Archie Shepp"
INDEX 01 00:00:00
FILE "06 - Crepescule With Nellie.wav" WAVE
TRACK 06 AUDIO
TITLE "Crepescule With Nellie"
PERFORMER "Archie Shepp"
INDEX 01 00:00:00
TRACK 07 AUDIO
TITLE "O.C."
PERFORMER "Archie Shepp"
INDEX 00 02:15:63
FILE "07 - O.C..wav" WAVE
INDEX 01 00:00:00
TRACK 08 AUDIO
TITLE "When Will The Blues Leave"
PERFORMER "Archie Shepp"
INDEX 00 06:42:07
FILE "08 - When Will The Blues Leave.wav" WAVE
INDEX 01 00:00:00
FILE "09 - The Funeral.wav" WAVE
TRACK 09 AUDIO
TITLE "The Funeral"
PERFORMER "Archie Shepp"
INDEX 01 00:00:00
FILE "10 - Mick (Incl. Ezz-thetic).wav" WAVE
TRACK 10 AUDIO
TITLE "Mick (Incl. Ezz-thetic)"
PERFORMER "Archie Shepp"
INDEX 01 00:00:00
другие релизы
Any questions -> support@pro-jazz.com. По всем вопросам пишите -> support@pro-jazz.com
16:05
235
Нет комментариев. Ваш будет первым!