Вы используете незарегистрированную версию компонента "Вкладки"!

Поиск

(Fusion/Funk/Blues) Ray Anderson Alligatory Band - Don't Mow Your Lawn - 1994, FLAC (tracks+.cue), lossless

Треклист:
Ray Anderson Alligatory Band / Don't Mow Your Lawn
Жанр: Fusion/Funk/Blues
Страна-производитель диска: Germany
Год издания диска: 1994
Издатель (лейбл): Enja Records
Номер по каталогу: ENJ-8070 2
Страна: USA
Аудиокодек: FLAC (*.flac)
Тип рипа: tracks+.cue
Битрейт аудио: lossless
Продолжительность: 1:00:16
Источник (релизер): funky_cat
Наличие сканов в содержимом раздачи: нет
Треклист:
1 Don't Mow Your Lawn 05:38
2 Diddleybop 08:45
3 Damaged But Good 05:32
4 Alligatory Pecadillo 07:42
5 What'cha Gonna Do With That 05:27
6 Airwaves 10:31
7 Blow Your Own Horn 09:44
8 Disguise The Limit 06:50
 
Лог создания рипа
X Lossless Decoder version 20110703 (135.1)
XLD extraction logfile from 2011-08-16 00:08:25 +0400
Ray Anderson Alligatory Band / Don't Mow Your Lawn
Used drive : HL-DT-ST DVDRW GS23N (revision SB00)
Ripper mode : CDParanoia III 10.2
Disable audio cache : OK for the drive with a cache less than 2750KiB
Make use of C2 pointers : NO
Read offset correction : 667
Max retry count : 10
Gap status : Analyzed, Appended
TOC of the extracted CD
Track | Start | Length | Start sector | End sector
---------------------------------------------------------
1 | 00:00:00 | 05:38:74 | 0 | 25423
2 | 05:38:74 | 08:45:74 | 25424 | 64872
3 | 14:24:73 | 05:32:74 | 64873 | 89846
4 | 19:57:72 | 07:42:74 | 89847 | 124570
5 | 27:40:71 | 05:27:74 | 124571 | 149169
6 | 33:08:70 | 10:31:74 | 149170 | 196568
7 | 43:40:69 | 09:44:72 | 196569 | 240440
8 | 53:25:66 | 06:50:72 | 240441 | 271262
AccurateRip Summary
Disc not found in AccurateRip DB.
All Tracks
Album gain : -2.74 dB
Peak : 0.977234
Statistics
Read error : 0
Skipped (treated as error) : 0
Edge jitter error (maybe fixed) : 0
Atom jitter error (maybe fixed) : 0
Drift error (maybe fixed) : 0
Dropped bytes error (maybe fixed) : 0
Duplicated bytes error (maybe fixed) : 0
Track 01
Filename : /Users/olegbelov/Downloads/Ray Anderson Alligatory Band - Don't Mow Your Lawn (1994)/01 - Don't Mow Your Lawn.flac
Pre-gap length : 00:02:00
Track gain : -3.35 dB
Peak : 0.977234
CRC32 hash (test run) : 9B97B9A2
CRC32 hash : 9B97B9A2
CRC32 hash (skip zero) : F5A62D3D
AccurateRip signature : 56A6FF1F
->Track not present in AccurateRip database.
Statistics
Read error : 0
Skipped (treated as error) : 0
Edge jitter error (maybe fixed) : 0
Atom jitter error (maybe fixed) : 0
Drift error (maybe fixed) : 0
Dropped bytes error (maybe fixed) : 0
Duplicated bytes error (maybe fixed) : 0
Inconsistency in error sectors : 0
Track 02
Filename : /Users/olegbelov/Downloads/Ray Anderson Alligatory Band - Don't Mow Your Lawn (1994)/02 - Diddleybop.flac
Track gain : -2.61 dB
Peak : 0.977234
CRC32 hash (test run) : FBAFF261
CRC32 hash : FBAFF261
CRC32 hash (skip zero) : 6DDCBF31
AccurateRip signature : 32AF8C96
->Track not present in AccurateRip database.
Statistics
Read error : 0
Skipped (treated as error) : 0
Edge jitter error (maybe fixed) : 0
Atom jitter error (maybe fixed) : 0
Drift error (maybe fixed) : 0
Dropped bytes error (maybe fixed) : 0
Duplicated bytes error (maybe fixed) : 0
Inconsistency in error sectors : 0
Track 03
Filename : /Users/olegbelov/Downloads/Ray Anderson Alligatory Band - Don't Mow Your Lawn (1994)/03 - Damaged But Good.flac
Track gain : -1.77 dB
Peak : 0.977234
CRC32 hash (test run) : CBC3502E
CRC32 hash : CBC3502E
CRC32 hash (skip zero) : 306D1B12
AccurateRip signature : 325D8BDE
->Track not present in AccurateRip database.
Statistics
Read error : 0
Skipped (treated as error) : 0
Edge jitter error (maybe fixed) : 0
Atom jitter error (maybe fixed) : 0
Drift error (maybe fixed) : 0
Dropped bytes error (maybe fixed) : 0
Duplicated bytes error (maybe fixed) : 0
Inconsistency in error sectors : 0
Track 04
Filename : /Users/olegbelov/Downloads/Ray Anderson Alligatory Band - Don't Mow Your Lawn (1994)/04 - Alligatory Pecadillo.flac
Track gain : -3.69 dB
Peak : 0.977234
CRC32 hash (test run) : 6155115B
CRC32 hash : 6155115B
CRC32 hash (skip zero) : A9D2EEA9
AccurateRip signature : D56A9A08
->Track not present in AccurateRip database.
Statistics
Read error : 0
Skipped (treated as error) : 0
Edge jitter error (maybe fixed) : 0
Atom jitter error (maybe fixed) : 0
Drift error (maybe fixed) : 0
Dropped bytes error (maybe fixed) : 0
Duplicated bytes error (maybe fixed) : 0
Inconsistency in error sectors : 0
Track 05
Filename : /Users/olegbelov/Downloads/Ray Anderson Alligatory Band - Don't Mow Your Lawn (1994)/05 - What'cha Gonna Do With That.flac
Track gain : -3.06 dB
Peak : 0.977234
CRC32 hash (test run) : 94181035
CRC32 hash : 94181035
CRC32 hash (skip zero) : 162DC893
AccurateRip signature : EC20EC69
->Track not present in AccurateRip database.
Statistics
Read error : 0
Skipped (treated as error) : 0
Edge jitter error (maybe fixed) : 0
Atom jitter error (maybe fixed) : 0
Drift error (maybe fixed) : 0
Dropped bytes error (maybe fixed) : 0
Duplicated bytes error (maybe fixed) : 0
Inconsistency in error sectors : 0
Track 06
Filename : /Users/olegbelov/Downloads/Ray Anderson Alligatory Band - Don't Mow Your Lawn (1994)/06 - Airwaves.flac
Track gain : -2.21 dB
Peak : 0.977234
CRC32 hash (test run) : 446EFD3D
CRC32 hash : 446EFD3D
CRC32 hash (skip zero) : 261ADD69
AccurateRip signature : 2D3648D7
->Track not present in AccurateRip database.
Statistics
Read error : 0
Skipped (treated as error) : 0
Edge jitter error (maybe fixed) : 0
Atom jitter error (maybe fixed) : 0
Drift error (maybe fixed) : 0
Dropped bytes error (maybe fixed) : 0
Duplicated bytes error (maybe fixed) : 0
Inconsistency in error sectors : 0
Track 07
Filename : /Users/olegbelov/Downloads/Ray Anderson Alligatory Band - Don't Mow Your Lawn (1994)/07 - Blow Your Own Horn.flac
Track gain : -2.52 dB
Peak : 0.977234
CRC32 hash (test run) : 90FC74A5
CRC32 hash : 90FC74A5
CRC32 hash (skip zero) : EDEBD98C
AccurateRip signature : 86DA22B0
->Track not present in AccurateRip database.
Statistics
Read error : 0
Skipped (treated as error) : 0
Edge jitter error (maybe fixed) : 0
Atom jitter error (maybe fixed) : 0
Drift error (maybe fixed) : 0
Dropped bytes error (maybe fixed) : 0
Duplicated bytes error (maybe fixed) : 0
Inconsistency in error sectors : 0
Track 08
Filename : /Users/olegbelov/Downloads/Ray Anderson Alligatory Band - Don't Mow Your Lawn (1994)/08 - Disguise The Limit.flac
Track gain : -2.23 dB
Peak : 0.977234
CRC32 hash (test run) : 30B70041
CRC32 hash : 30B70041
CRC32 hash (skip zero) : E6F374C2
AccurateRip signature : 6C5DB371
->Track not present in AccurateRip database.
Statistics
Read error : 0
Skipped (treated as error) : 0
Edge jitter error (maybe fixed) : 0
Atom jitter error (maybe fixed) : 0
Drift error (maybe fixed) : 0
Dropped bytes error (maybe fixed) : 0
Duplicated bytes error (maybe fixed) : 0
Inconsistency in error sectors : 0
No errors occurred
End of status report
 
Содержание индексной карты (.CUE)
TITLE "Don't Mow Your Lawn"
PERFORMER "Ray Anderson Alligatory Band"
REM GENRE "Jazz"
REM DATE "1994"
REM DISCID 6B0E2008
REM REPLAYGAIN_ALBUM_GAIN -2.74 dB
REM REPLAYGAIN_ALBUM_PEAK 0.977234
FILE "01 - Don't Mow Your Lawn.flac" WAVE
TRACK 01 AUDIO
TITLE "Don't Mow Your Lawn"
SONGWRITER "Ray Anderson"
REM REPLAYGAIN_TRACK_GAIN -3.35 dB
REM REPLAYGAIN_TRACK_PEAK 0.977234
INDEX 01 00:00:00
FILE "02 - Diddleybop.flac" WAVE
TRACK 02 AUDIO
TITLE "Diddleybop"
SONGWRITER "Ray Anderson"
REM REPLAYGAIN_TRACK_GAIN -2.61 dB
REM REPLAYGAIN_TRACK_PEAK 0.977234
INDEX 01 00:00:00
FILE "03 - Damaged But Good.flac" WAVE
TRACK 03 AUDIO
TITLE "Damaged But Good"
SONGWRITER "Ray Anderson"
REM REPLAYGAIN_TRACK_GAIN -1.77 dB
REM REPLAYGAIN_TRACK_PEAK 0.977234
INDEX 01 00:00:00
FILE "04 - Alligatory Pecadillo.flac" WAVE
TRACK 04 AUDIO
TITLE "Alligatory Pecadillo"
SONGWRITER "Ray Anderson"
REM REPLAYGAIN_TRACK_GAIN -3.69 dB
REM REPLAYGAIN_TRACK_PEAK 0.977234
INDEX 01 00:00:00
FILE "05 - What'cha Gonna Do With That.flac" WAVE
TRACK 05 AUDIO
TITLE "What'cha Gonna Do With That"
SONGWRITER "Ray Anderson"
REM REPLAYGAIN_TRACK_GAIN -3.06 dB
REM REPLAYGAIN_TRACK_PEAK 0.977234
INDEX 01 00:00:00
FILE "06 - Airwaves.flac" WAVE
TRACK 06 AUDIO
TITLE "Airwaves"
SONGWRITER "Ray Anderson"
REM REPLAYGAIN_TRACK_GAIN -2.21 dB
REM REPLAYGAIN_TRACK_PEAK 0.977234
INDEX 01 00:00:00
FILE "07 - Blow Your Own Horn.flac" WAVE
TRACK 07 AUDIO
TITLE "Blow Your Own Horn"
SONGWRITER "Ray Anderson"
REM REPLAYGAIN_TRACK_GAIN -2.52 dB
REM REPLAYGAIN_TRACK_PEAK 0.977234
INDEX 01 00:00:00
FILE "08 - Disguise The Limit.flac" WAVE
TRACK 08 AUDIO
TITLE "Disguise The Limit"
SONGWRITER "Ray Anderson"
REM REPLAYGAIN_TRACK_GAIN -2.23 dB
REM REPLAYGAIN_TRACK_PEAK 0.977234
INDEX 01 00:00:00
 
Состав
Ray Anderson - tb, lead voc
Lew Soloff - tp
Jerome Harris - g, voc
Gregory Jones - b, voc
Tommy Campbell - dr
Frank Colon - perc
Any questions -> support@pro-jazz.com. По всем вопросам пишите -> support@pro-jazz.com
16:04
300
Нет комментариев. Ваш будет первым!