Вы используете незарегистрированную версию компонента "Вкладки"!

Поиск

(Free Jazz, Avant-Garde) Andrew Cyrille - The Navigator - 1983, FLAC (image+.cue), lossless

(Free Jazz, Avant-Garde) Andrew Cyrille - The Navigator - 1983, FLAC (image+.cue), lossless
Треклист:
Andrew Cyrille - The Navigator
Жанр: Free Jazz, Avant-Garde
Год выпуска диска: 1983
Производитель диска: Soul Note, Italy
Аудио кодек: FLAC
Тип рипа: image+.cue
Битрейт аудио: lossless
Продолжительность: 45'20''
Треклист:
1. Through the Ages Jehovah
2. Navigator
3. Module
4. Music in Us
5. So That Life Can Endure...P.S. With Love
6. Circumfusion/The Magnificent Bimbo
Доп. информация: Andrew Cyrille
Ted Daniel
Sonelius Smith
Nick Di Geronimo
 
скрытый текст
Exact Audio Copy V0.99 prebeta 5 from 4. May 2009
EAC extraction logfile from 11. August 2010, 12:21
Andrew Cyrille / The Navigator
Used drive : Optiarc DVD RW AD-5200S Adapter: 2 ID: 1
Read mode : Secure
Utilize accurate stream : Yes
Defeat audio cache : Yes
Make use of C2 pointers : No
Read offset correction : 48
Overread into Lead-In and Lead-Out : No
Fill up missing offset samples with silence : Yes
Delete leading and trailing silent blocks : No
Null samples used in CRC calculations : Yes
Used interface : Native Win32 interface for Win NT & 2000
Used output format : Internal WAV Routines
Sample format : 44.100 Hz; 16 Bit; Stereo
Use compression offset : 0
TOC of the extracted CD
Track | Start | Length | Start sector | End sector
---------------------------------------------------------
1 | 0:00.32 | 4:42.43 | 32 | 21224
2 | 4:43.00 | 9:50.25 | 21225 | 65499
3 | 14:33.25 | 4:01.00 | 65500 | 83574
4 | 18:34.25 | 5:36.25 | 83575 | 108799
5 | 24:10.50 | 10:08.25 | 108800 | 154424
6 | 34:19.00 | 10:47.00 | 154425 | 202949
Range status and errors
Selected range
Filename f:\FOS\MY_MUSIC\Cyrille Andrew\Cyrille - The Navigator\Andrew Cyrille - The Navigator.wav
Peak level 100.0 %
Range quality 99.9 %
Copy CRC 1D502558
Copy OK
No errors occurred
AccurateRip summary
Track 1 accurately ripped (confidence 2) [BDA601F4]
Track 2 accurately ripped (confidence 2) [1D7F3072]
Track 3 accurately ripped (confidence 2) [1C3F9664]
Track 4 accurately ripped (confidence 2) [FCC822E8]
Track 5 accurately ripped (confidence 2) [47933B46]
Track 6 accurately ripped (confidence 2) [68D5FFA3]
All tracks accurately ripped
End of status report
Собственный рип оригинального диска
Any questions -> support@pro-jazz.com. По всем вопросам пишите -> support@pro-jazz.com
02:11
228
Нет комментариев. Ваш будет первым!