Вы используете незарегистрированную версию компонента "Вкладки"!

Поиск

(avant-garde jazz/latin jazz) Banda Hermetica - El calendario de los sonidos - 2007, FLAC (image+.cue), lossless

Треклист:
Banda Hermetica - El calendario de los sonidos
Жанр: avant-garde jazz/latin jazz
Год выпуска диска: 2007
Производитель диска: MDR Records/Argentina
Аудио кодек: FLAC
Тип рипа: image+.cue
Битрейт аудио: lossless
Треклист:
1. Banda Hermetica
2. 16 de Octubre"
3. 8 de Agosto
4. 20 de Julio
5. 3 de Septiembre
6. 10 de Octobre
7. 19 de Agosto
8. No Liego
9. 14 de Noviembre
10. 24 de Octubre
11. 4 de Noviembre
12. 12 de Octubre
13. 2 de Septiembre
Собственный рип
Отчет ЕАС
 
скрытый текст
Exact Audio Copy V0.99 prebeta 5 from 4. May 2009
EAC extraction logfile from 11. August 2010, 21:46
Banda Hermetica / El calendario de los sonidos
Used drive : Optiarc DVD RW AD-7243S Adapter: 0 ID: 1
Read mode : Secure
Utilize accurate stream : Yes
Defeat audio cache : Yes
Make use of C2 pointers : No
Read offset correction : 48
Overread into Lead-In and Lead-Out : No
Fill up missing offset samples with silence : Yes
Delete leading and trailing silent blocks : No
Null samples used in CRC calculations : Yes
Used interface : Native Win32 interface for Win NT & 2000
Used output format : User Defined Encoder
Selected bitrate : 768 kBit/s
Quality : High
Add ID3 tag : No
Command line compressor : C:\Program Files\Exact Audio Copy\FLAC\FLAC.EXE
Additional command line options : -6 -V -T "ARTIST=%a" -T "TITLE=%t" -T "ALBUM=%g" -T "DATE=%y" -T "TRACKNUMBER=%n" -T "GENRE=%m" -T "COMMENT=%e" %s -o %d
TOC of the extracted CD
Track | Start | Length | Start sector | End sector
---------------------------------------------------------
1 | 0:00.00 | 9:27.72 | 0 | 42596
2 | 9:27.72 | 5:29.51 | 42597 | 67322
3 | 14:57.48 | 3:32.05 | 67323 | 83227
4 | 18:29.53 | 4:09.67 | 83228 | 101969
5 | 22:39.45 | 4:59.43 | 101970 | 124437
6 | 27:39.13 | 1:54.01 | 124438 | 132988
7 | 29:33.14 | 4:45.52 | 132989 | 154415
8 | 34:18.66 | 1:44.22 | 154416 | 162237
9 | 36:03.13 | 8:23.38 | 162238 | 200000
10 | 44:26.51 | 4:20.53 | 200001 | 219553
11 | 48:47.29 | 8:08.73 | 219554 | 256226
12 | 56:56.27 | 6:39.24 | 256227 | 286175
13 | 63:35.51 | 6:07.16 | 286176 | 313716
Range status and errors
Selected range
Filename C:\Documents and Settings\S\Мои документы\Torrent раздача\Banda Hermetica - El calendario de los sonidos.wav
Peak level 100.0 %
Range quality 100.0 %
Test CRC 45A1D957
Copy CRC 45A1D957
Copy OK
No errors occurred
AccurateRip summary
Track 1 not present in database
Track 2 not present in database
Track 3 not present in database
Track 4 not present in database
Track 5 not present in database
Track 6 not present in database
Track 7 not present in database
Track 8 not present in database
Track 9 not present in database
Track 10 not present in database
Track 11 not present in database
Track 12 not present in database
Track 13 not present in database
None of the tracks are present in the AccurateRip database
End of status report
CUE
 
скрытый текст
REM GENRE Avantgarde
REM DATE 2007
REM DISCID C610560D
REM COMMENT "ExactAudioCopy v0.99pb5"
PERFORMER "Banda Hermetica"
TITLE "El calendario de los sonidos"
FILE "Banda Hermetica - El calendario de los sonidos.flac" WAVE
TRACK 01 AUDIO
TITLE "Banda Hrmetica"
PERFORMER "Banda Hermetica"
INDEX 01 00:00:00
TRACK 02 AUDIO
TITLE "16 de Octubre"
PERFORMER "Banda Hermetica"
INDEX 00 09:25:72
INDEX 01 09:27:72
TRACK 03 AUDIO
TITLE "8 de Agosto"
PERFORMER "Banda Hermetica"
INDEX 00 14:55:48
INDEX 01 14:57:48
TRACK 04 AUDIO
TITLE "20 de Julio"
PERFORMER "Banda Hermetica"
INDEX 00 18:27:53
INDEX 01 18:29:53
TRACK 05 AUDIO
TITLE "3 de Septiembre"
PERFORMER "Banda Hermetica"
INDEX 00 22:37:45
INDEX 01 22:39:45
TRACK 06 AUDIO
TITLE "10 de Octobre"
PERFORMER "Banda Hermetica"
INDEX 00 27:37:13
INDEX 01 27:39:13
TRACK 07 AUDIO
TITLE "19 de Agosto"
PERFORMER "Banda Hermetica"
INDEX 00 29:31:14
INDEX 01 29:33:14
TRACK 08 AUDIO
TITLE "No Liego"
PERFORMER "Banda Hermetica"
INDEX 00 34:16:66
INDEX 01 34:18:66
TRACK 09 AUDIO
TITLE "14 de Noviembre"
PERFORMER "Banda Hermetica"
INDEX 00 36:01:13
INDEX 01 36:03:13
TRACK 10 AUDIO
TITLE "24 de Octubre"
PERFORMER "Banda Hermetica"
INDEX 00 44:24:51
INDEX 01 44:26:51
TRACK 11 AUDIO
TITLE "4 de Noviembre"
PERFORMER "Banda Hermetica"
INDEX 00 48:45:29
INDEX 01 48:47:29
TRACK 12 AUDIO
TITLE "12 de Octubre"
PERFORMER "Banda Hermetica"
INDEX 00 56:54:27
INDEX 01 56:56:27
TRACK 13 AUDIO
TITLE "2 de Septiembre"
PERFORMER "Banda Hermetica"
INDEX 00 63:33:51
INDEX 01 63:35:51
http://www.myspace.com/bandahermetica
Другие раздачи
http://rutracker.org/forum/search.php?uid=17163016
Any questions -> support@pro-jazz.com. По всем вопросам пишите -> support@pro-jazz.com
02:10
165
Нет комментариев. Ваш будет первым!