Вы используете незарегистрированную версию компонента "Вкладки"!

Поиск

(Free Jazz, Avant-garde) Akira Sakata - Mooko - 1990, FLAC (image+.cue), lossless

(Free Jazz, Avant-garde) Akira Sakata - Mooko - 1990, FLAC (image+.cue), lossless
Треклист:
Akira Sakata / Mooko
Жанр: Free Jazz, Avant-garde
Страна-производитель диска: England
Год издания диска: 1990
Издатель (лейбл): Venture Records
Номер по каталогу: CDVE 46
Аудиокодек: FLAC (*.flac)
Тип рипа: image+.cue
Битрейт аудио: lossless
Продолжительность: 37:17
Источник: Собственный рип
Наличие сканов в содержимом раздачи: нет
Треклист:
01. Nitchimo Satchimo [6:33]
02. Hieyashi Bushi [5:54]
03. Wann Kann Ich Sie Wiedersehen? [4:42]
04. Hitsujikai No Bansan [9:14]
05. Kibaminzoku No Odori [7:50]
06. Mooko [3:03]
 
Лог создания рипа
Exact Audio Copy V0.99 prebeta 4 from 23. January 2008
Отчёт EAC об извлечении, выполненном 23. ноября 2008, 16:47
Akira Sakata / Mooko
Дисковод: TSSTcorpCDDVDW SH-S203B Adapter: 2 ID: 2
Режим чтения : Достоверность
Использование точного потока : Да
Отключение кэша аудио : Да
Использование указателей C2 : Нет
Коррекция смещения при чтении : 6
Способность читать области Lead-in и Lead-out : Нет
Заполнение пропущенных сэмплов тишиной : Да
Удаление блоков с тишиной в начале и конце : Нет
При вычислениях CRC использовались нулевые сэмплы : Да
Интерфейс : Установленный внешний ASPI-интерфейс
Выходной формат : Внутренние WAV-операции
Формат сэмплов : 44.100 Гц; 16 бит; стерео
TOC извлечённого CD
Трек | Старт | Длительность | Начальный сектор | Конечный сектор
---------------------------------------------------------------------
1 | 0:00.33 | 6:33.27 | 33 | 29534
2 | 6:33.60 | 5:54.05 | 29535 | 56089
3 | 12:27.65 | 4:42.35 | 56090 | 77274
4 | 17:10.25 | 9:14.18 | 77275 | 118842
5 | 26:24.43 | 7:49.55 | 118843 | 154072
6 | 34:14.23 | 3:02.62 | 154073 | 167784
Характеристики диапазона извлечения и сообщения об ошибках
Выбранный диапазон
Имя файла E:\Temporary Residence\Akira Sakata - Mooko.wav
Пиковый уровень 100.0 %
Качество диапазона 99.9 %
CRC копии 68E1EE5F
Копирование... OK
Ошибок не произошло
Конец отчёта
 
Содержание индексной карты (.CUE)
REM GENRE Jazz
REM DATE 1990
REM DISCID 4E08BD06
REM COMMENT ExactAudioCopy v0.99pb4
PERFORMER "Akira Sakata"
TITLE "Mooko"
FILE "Akira Sakata - Mooko.flac" WAVE
TRACK 01 AUDIO
TITLE "Nitchimo Satchimo"
INDEX 00 00:00:00
INDEX 01 00:00:33
TRACK 02 AUDIO
TITLE "Hieyashi Bushi"
INDEX 01 06:33:60
TRACK 03 AUDIO
TITLE "Wann Kann Ich Sie Wiedersehen?"
INDEX 01 12:27:65
TRACK 04 AUDIO
TITLE "Hitsujikai No Bansan"
INDEX 01 17:10:25
TRACK 05 AUDIO
TITLE "Kibaminzoku No Odori"
INDEX 01 26:24:43
TRACK 06 AUDIO
TITLE "Mooko"
INDEX 01 34:14:23
 
Лог проверки качества
-------------------------------------------------------
Filename : Akira Sakata - Mooko.wav (376.34mb)
Source : CDDA (probability 100%)
Detect Mode : 8
Date : 23.11.2008 05-29-45
-------------------------------------------------------
File Generated by Ape Batch Check 1.4a (build 29.04.2008)
Monkey's Audio : (c) Matthew T. Ashland; http://www.monkeysaudio.com/
auCDtect.exe : (c) Oleg Berngardt; Alexander Djourik; http://www.true-audio.com
Ape Batch Check : Bete Noire; http://betenoire.narod.ru/
 
Скриншот спектра частот
 
Об альбоме
Mooko was the first installment of a short-lived "power trio" comprised of Japanese free saxophonist Akira Sakata, bassist Bill Laswell, and drummer Ronald Shannon Jackson. At the time of this recording, the latter two were deeply into their Last Exit project, a band with whom Sakata sat in during their tour of Japan. This trio is a bit like a pared-down version of Last Exit, without the incendiary guitar work of Sonny Sharrock and with a somewhat more compositional bent. The opening track, "Nitchimo Satchimo," for example, begins with a sprightly marching cadence before launching into improv. Midway through, however, the music suspends its momentum and Laswell enters with some deliciously slow and deadly funky bass for a few tantalizing moments before lurching back into the theme. About half of the pieces here are improvised and, generally, they don't work as well as the composed ones. Sakata doesn't have either the individual sound or the range of expression to really pull off free improv with great creativity, but given a loose structure, his playing acquires a heady confidence and swagger. Laswell and Jackson are well-meshed by this point and provide enough propulsion and groove to hold together any improv that threatens to meander. The closing cut gets into the sitar-based, dreamy territory that Laswell would explore more thoroughly on his own in bands like Material. At its best, Mooko is an exciting, powerful, and tight little band, capable of developing concentrated bursts of high energy; at other times, the inspiration is lacking. The disc is worth hearing, especially for Last Exit fans wanting to hear that band's rhythm team in a sparser context.
 
Музыканты
Akira Sakata - Alto Saxophone, B Clarinet, Piano, Voice
Bill Laswell - Prepared Fretless 4, 6 & 8 String Basses, Sitar Bass, Ectar, Violin
Ronald Shannon Jackson - Drums, Percussion, Scheollmie
 
Дополнительно
Ronald Shannon Jackson plays Sonor Drums, Paiste Cymbals, Compo Drum Heads
Sitar Bass by Ken Parker
Recorded At Sorcerer Sound December 2 & 3 1987
Mixed At Quad Recording Studio December 4 & 5 1987
Assistant Engineer at Sorcerer Sound: Shawna Stobie
Design by Takuji Nomoto 'de-ge'
Thanks to Nicky Skopelitis, Aki Ikuta, & Hisashi Ikegami
Any questions -> support@pro-jazz.com. По всем вопросам пишите -> support@pro-jazz.com
19:16
219
Нет комментариев. Ваш будет первым!