Вы используете незарегистрированную версию компонента "Вкладки"!

Поиск

(Free Improvisation) Tony Bianco, Dave Liebman, Tony Marino - Line Ish - 2004, FLAC (image+.cue), lossless

(Free Improvisation) Tony Bianco, Dave Liebman, Tony Marino - Line Ish - 2004, FLAC (image+.cue), lossless
Треклист:
Tony Bianco, Dave Liebman, Tony Marino / Line Ish
Жанр: Free Improvisation
Страна-производитель диска: UK
Год издания диска: 2004
Издатель (лейбл): Emanem
Номер по каталогу: 4104
Аудиокодек: FLAC (*.flac)
Тип рипа: image+.cue
Битрейт аудио: lossless
Продолжительность: 60:50
Источник (релизер): cd
Наличие сканов в содержимом раздачи: нет
Треклист:
1 Line Ish: Part One 14:33
2 Bass Interlude 4:02
3 Line Ish: Part Two 13:33
4 Sax Interlude 2:13
5 Line Ish: Part Three 8:42
6 Group Interlude 4:45
7 Cymbal Interlude 1:48
8 Line Ish: Part Four 11:13
 
Лог создания рипа
Exact Audio Copy V1.0 beta 2 from 29. April 2011
EAC extraction logfile from 8. December 2011, 10:19
Bianco, Liebman, Marino / Line Ish
Used drive : Optiarc DVD RW AD-7170A Adapter: 0 ID: 0
Read mode : Secure
Utilize accurate stream : Yes
Defeat audio cache : Yes
Make use of C2 pointers : No
Read offset correction : 48
Overread into Lead-In and Lead-Out : No
Fill up missing offset samples with silence : Yes
Delete leading and trailing silent blocks : No
Null samples used in CRC calculations : Yes
Used interface : Native Win32 interface for Win NT & 2000
Used output format : User Defined Encoder
Selected bitrate : 320 kBit/s
Quality : High
Add ID3 tag : No
Command line compressor : C:\Program Files\Exact Audio Copy\Flac\flac.exe
Additional command line options : -V -8 -T "Date=%year%" -T "Genre=%genre%" %source%
TOC of the extracted CD
Track | Start | Length | Start sector | End sector
---------------------------------------------------------
1 | 0:00.00 | 14:33.50 | 0 | 65524
2 | 14:33.50 | 4:02.03 | 65525 | 83677
3 | 18:35.53 | 13:33.13 | 83678 | 144665
4 | 32:08.66 | 2:13.10 | 144666 | 154650
5 | 34:22.01 | 8:41.66 | 154651 | 193791
6 | 43:03.67 | 4:45.57 | 193792 | 215223
7 | 47:49.49 | 1:47.64 | 215224 | 223312
8 | 49:37.38 | 11:13.03 | 223313 | 273790
Range status and errors
Selected range
Filename C:\EAC\Downloads\Bianco, Liebman, Marino - Line Ish.wav
Peak level 97.1 %
Extraction speed 2.0 X
Range quality 100.0 %
Test CRC 4553FD90
Copy CRC 4553FD90
Copy OK
No errors occurred
AccurateRip summary
Track 1 not present in database
Track 2 not present in database
Track 3 not present in database
Track 4 not present in database
Track 5 not present in database
Track 6 not present in database
Track 7 not present in database
Track 8 not present in database
None of the tracks are present in the AccurateRip database
End of status report
==== Log checksum 0E1FDE8A69C4C9989E62B820B4F8D8A9539EDDC35021664C5C94D224B2C79B99 ====
 
Содержание индексной карты (.CUE)
REM GENRE Jazz
REM DATE 2004
REM DISCID 7A0E4208
REM COMMENT "ExactAudioCopy v1.0b2"
PERFORMER "Bianco, Liebman, Marino"
TITLE "Line Ish"
FILE "Bianco, Liebman, Marino - Line Ish.flac" WAVE
TRACK 01 AUDIO
TITLE "Line Ish: Part One"
PERFORMER "Bianco, Liebman, Marino"
INDEX 01 00:00:00
TRACK 02 AUDIO
TITLE "Bass Interlude"
PERFORMER "Bianco, Liebman, Marino"
INDEX 01 14:33:50
TRACK 03 AUDIO
TITLE "Line Ish: Part Two"
PERFORMER "Bianco, Liebman, Marino"
INDEX 01 18:35:53
TRACK 04 AUDIO
TITLE "Sax Interlude"
PERFORMER "Bianco, Liebman, Marino"
INDEX 01 32:08:66
TRACK 05 AUDIO
TITLE "Line Ish: Part Three"
PERFORMER "Bianco, Liebman, Marino"
INDEX 01 34:22:01
TRACK 06 AUDIO
TITLE "Group Interlude"
PERFORMER "Bianco, Liebman, Marino"
INDEX 01 43:03:67
TRACK 07 AUDIO
TITLE "Cymbal Interlude"
PERFORMER "Bianco, Liebman, Marino"
INDEX 01 47:49:49
TRACK 08 AUDIO
TITLE "Line Ish: Part Four"
PERFORMER "Bianco, Liebman, Marino"
INDEX 01 49:37:38
Доп. информация: Recorded on September 2003 at Red Rock Studio, Saylorsburg, PA
 
Состав
Double Bass – Tony Marino
Drums – Tony Bianco
Soprano Saxophone, Tenor Saxophone, Flute [Wooden], Piano – Dave Liebman
По всем вопросам пишите личное сообщение пользователю M0p94ok.
19:17
155
Нет комментариев. Ваш будет первым!