Вы используете незарегистрированную версию компонента "Вкладки"!

Поиск

(Free Jazz) Archie Shepp - I Know About The Life - 1981, FLAC (tracks+.cue) lossless

(Free Jazz) Archie Shepp - I Know About The Life - 1981, FLAC (tracks+.cue) lossless
Треклист:
Archie Shepp / I Know About The Life
Жанр: Free Jazz
Страна-производитель диска: Canada
Год издания диска: 1981
Издатель (лейбл): Sackville Recordings
Номер по каталогу: SKCD2-3026
Страна: U.S.A
Аудио кодек: FLAC (*.flac)
Тип рипа: tracks+.cue
Битрейт аудио: lossless
Продолжительность: 42:57
Источник (релизер): nnm
Наличие сканов в содержимом раздачи: да
Треклист:
01 - I Know About The Life 0:13:50 (Shepp)
02 - Giant Steps 0:08:08 (Coltrane)
03 - Round Midnight 0:12:11 (Hanighen, Monk, Williams)
04 - Well You Needn't 0:08:50 (Monk)
 
Лог создания рипа
EAC extraction logfile from 6. March 2005, 22:11 for CD
Archie Shepp / I Know About The Life
Used drive : PIONEER DVD-RW DVR-107D Adapter: 2 ID: 0
Read mode : Secure with NO C2, accurate stream, disable cache
Read offset correction : 48
Overread into Lead-In and Lead-Out : Yes
Used output format : Internal WAV Routines
44.100 Hz; 16 Bit; Stereo
Other options :
Fill up missing offset samples with silence : Yes
Delete leading and trailing silent blocks : No
Installed external ASPI interface
Track 1
Filename C:\temp\Archie Shepp - I Know About The Life (1981) [Flac]\01 - I Know About The Life.wav
Pre-gap length 0:00:02.44
Peak level 69.7 %
Track quality 100.0 %
Test CRC F217CFE7
Copy CRC F217CFE7
Copy OK
Track 2
Filename C:\temp\Archie Shepp - I Know About The Life (1981) [Flac]\02 - Giant Steps.wav
Pre-gap length 0:00:03.04
Peak level 91.4 %
Track quality 100.0 %
Test CRC E31A8047
Copy CRC E31A8047
Copy OK
Track 3
Filename C:\temp\Archie Shepp - I Know About The Life (1981) [Flac]\03 - Round Midnight.wav
Pre-gap length 0:00:03.60
Peak level 83.3 %
Track quality 100.0 %
Test CRC 616EC8F4
Copy CRC 616EC8F4
Copy OK
Track 4
Filename C:\temp\Archie Shepp - I Know About The Life (1981) [Flac]\04 - Well You Needn't.wav
Pre-gap length 0:00:02.33
Peak level 83.1 %
Track quality 100.0 %
Test CRC 746D93EF
Copy CRC 746D93EF
Copy OK
No errors occured
End of status report
 
Содержание индексной карты (.CUE)
PERFORMER "Archie Shepp"
TITLE "I Know About The Life"
FILE "01 - I Know About The Life.flac" WAVE
TRACK 01 AUDIO
TITLE "I Know About The Life"
PERFORMER "Archie Shepp"
INDEX 01 00:00:00
TRACK 02 AUDIO
TITLE "Giant Steps"
PERFORMER "Archie Shepp"
INDEX 00 13:48:27
FILE "02 - Giant Steps.wav" WAVE
INDEX 01 00:00:00
TRACK 03 AUDIO
TITLE "Round Midnight"
PERFORMER "Archie Shepp"
INDEX 00 08:04:12
FILE "03 - Round Midnight.wav" WAVE
INDEX 01 00:00:00
TRACK 04 AUDIO
TITLE "Well You Needn't"
PERFORMER "Archie Shepp"
INDEX 00 12:09:03
FILE "04 - Well You Needn't.wav" WAVE
INDEX 01 00:00:00
 
Скриншот спектра частот
 
Состав
Shepp, Archie (Tenor Saxophone)
John Betsch (Drums)
Ken Werner (Piano)
Santi Debriano (Double Bass)
На раздаче никого нет - пишите в личку
По всем вопросам пишите личное сообщение пользователю M0p94ok.
09:37
192
Нет комментариев. Ваш будет первым!