Вы используете незарегистрированную версию компонента "Вкладки"!

Поиск

(Avant-Garde Jazz, Free Jazz) The Reggie Workman Ensemble - Altered Spaces - 1993, FLAC (tracks+.cue) lossless

(Avant-Garde Jazz, Free Jazz) The Reggie Workman Ensemble - Altered Spaces - 1993, FLAC (tracks+.cue) lossless
Треклист:
The Reggie Workman Ensemble / Altered Spaces
Жанр: Avant-Garde Jazz, Free Jazz
Страна-производитель диска: UK
Год издания диска: 1993
Издатель (лейбл): Leo Records
Номер по каталогу: CD LR 183
Страна: US
Аудио кодек: FLAC (*.flac)
Тип рипа: tracks+.cue
Битрейт аудио: lossless
Продолжительность: 77:54
Источник (релизер): avaxhome.ws
Наличие сканов в содержимом раздачи: да
Треклист:
01 - Apart (Revisited) Workman 27:10
02 - Ballad for the Silf Workman 06:33
03 - Altered Spaces Workman 08:12
04 - Ten Workman 12:51
05 - Suite Pour le Courage Workman 19:22
06 - Wha's Nine Workman 03:43
 
Лог создания рипа
Exact Audio Copy V0.99 prebeta 5 from 4. May 2009
EAC extraction logfile from 11. November 2010, 18:30
The Reggie Workman Ensemble / Altered Spaces
Used drive : HL-DT-STDVD-RAM GSA-H55N Adapter: 0 ID: 1
Read mode : Secure
Utilize accurate stream : Yes
Defeat audio cache : Yes
Make use of C2 pointers : No
Read offset correction : 102
Overread into Lead-In and Lead-Out : No
Fill up missing offset samples with silence : Yes
Delete leading and trailing silent blocks : No
Null samples used in CRC calculations : Yes
Used interface : Native Win32 interface for Win NT & 2000
Gap handling : Appended to previous track
Used output format : Internal WAV Routines
Sample format : 44.100 Hz; 16 Bit; Stereo
TOC of the extracted CD
Track | Start | Length | Start sector | End sector
---------------------------------------------------------
1 | 0:00.00 | 27:10.08 | 0 | 122257
2 | 27:10.08 | 6:33.27 | 122258 | 151759
3 | 33:43.35 | 8:12.70 | 151760 | 188729
4 | 41:56.30 | 12:51.40 | 188730 | 246594
5 | 54:47.70 | 19:22.23 | 246595 | 333767
6 | 74:10.18 | 3:43.60 | 333768 | 350552
Track 1
Filename D:\_Music myRips\The Reggie Workman Ensemble - Altered Spaces\The Reggie Workman Ensemble - Altered Spaces (flac)\01 - Apart (revisited).wav
Pre-gap length 0:00:02.00
Peak level 81.7 %
Track quality 99.9 %
Test CRC BE6F90EF
Copy CRC BE6F90EF
Track not present in AccurateRip database
Copy OK
Track 2
Filename D:\_Music myRips\The Reggie Workman Ensemble - Altered Spaces\The Reggie Workman Ensemble - Altered Spaces (flac)\02 - Ballad for the silf.wav
Peak level 68.1 %
Track quality 100.0 %
Test CRC EB37E388
Copy CRC EB37E388
Track not present in AccurateRip database
Copy OK
Track 3
Filename D:\_Music myRips\The Reggie Workman Ensemble - Altered Spaces\The Reggie Workman Ensemble - Altered Spaces (flac)\03 - Altered Spaces.wav
Peak level 68.0 %
Track quality 100.0 %
Test CRC 7E6BFD65
Copy CRC 7E6BFD65
Track not present in AccurateRip database
Copy OK
Track 4
Filename D:\_Music myRips\The Reggie Workman Ensemble - Altered Spaces\The Reggie Workman Ensemble - Altered Spaces (flac)\04 - Ten.wav
Peak level 76.5 %
Track quality 100.0 %
Test CRC 603416ED
Copy CRC 603416ED
Track not present in AccurateRip database
Copy OK
Track 5
Filename D:\_Music myRips\The Reggie Workman Ensemble - Altered Spaces\The Reggie Workman Ensemble - Altered Spaces (flac)\05 - Suite pour le courage.wav
Peak level 72.3 %
Track quality 100.0 %
Test CRC 392B3475
Copy CRC 392B3475
Track not present in AccurateRip database
Copy OK
Track 6
Filename D:\_Music myRips\The Reggie Workman Ensemble - Altered Spaces\The Reggie Workman Ensemble - Altered Spaces (flac)\06 - Wha's nine.wav
Peak level 37.2 %
Track quality 99.9 %
Test CRC 276911F3
Copy CRC 276911F3
Track not present in AccurateRip database
Copy OK
None of the tracks are present in the AccurateRip database
No errors occurred
End of status report
 
Содержание индексной карты (.CUE)
REM GENRE Jazz
REM DATE 1993
REM DISCID 4C124206
REM COMMENT "ExactAudioCopy v0.99pb5"
PERFORMER "The Reggie Workman Ensemble"
TITLE "Altered Spaces"
FILE "01 - Apart (revisited).wav" WAVE
TRACK 01 AUDIO
TITLE "Apart (revisited)"
PERFORMER "The Reggie Workman Ensemble"
INDEX 01 00:00:00
FILE "02 - Ballad for the silf.wav" WAVE
TRACK 02 AUDIO
TITLE "Ballad for the silf"
PERFORMER "The Reggie Workman Ensemble"
INDEX 01 00:00:00
FILE "03 - Altered Spaces.wav" WAVE
TRACK 03 AUDIO
TITLE "Altered Spaces"
PERFORMER "The Reggie Workman Ensemble"
INDEX 01 00:00:00
FILE "04 - Ten.wav" WAVE
TRACK 04 AUDIO
TITLE "Ten"
PERFORMER "The Reggie Workman Ensemble"
INDEX 01 00:00:00
FILE "05 - Suite pour le courage.wav" WAVE
TRACK 05 AUDIO
TITLE "Suite pour le courage"
PERFORMER "The Reggie Workman Ensemble"
INDEX 01 00:00:00
FILE "06 - Wha's nine.wav" WAVE
TRACK 06 AUDIO
TITLE "Wha's nine"
PERFORMER "The Reggie Workman Ensemble"
INDEX 01 00:00:00
 
Лог проверки качества
d:\>d:\aucdtect -d/-m0 d:\zzz\*.wav
auCDtect: CD records authenticity detector, version 0.8.2
Copyright (c) 2004 Oleg Berngardt. All rights reserved.
Copyright (c) 2004 Alexander Djourik. All rights reserved.
------------------------------------------------------------
Processing file: [01. Apart (revisited).wav]
------------------------------------------------------------
This track looks like CDDA with probability 100%
------------------------------------------------------------
Processing file: [02. Ballad for the silf.wav]
------------------------------------------------------------
This track looks like CDDA with probability 99%
------------------------------------------------------------
Processing file: [03. Altered Spaces.wav]
------------------------------------------------------------
This track looks like CDDA with probability 100%
------------------------------------------------------------
Processing file: [04. Ten.wav]
------------------------------------------------------------
This track looks like CDDA with probability 100%
------------------------------------------------------------
Processing file: [05. Suite pour le courage.wav]
------------------------------------------------------------
This track looks like CDDA with probability 100%
------------------------------------------------------------
Processing file: [06. Wha's nine.wav]
------------------------------------------------------------
This track looks like CDDA with probability 100%
------------------------------------------------------------
Final Conclusion:
------------------------------------------------------------
These tracks looks like CDDA with probability 100%
 
Скриншот спектра частот
Доп. информация:
 
Album Info
Recorded live at Swarthmore College, Pennsylvania, 21 February, 1992
 
Состав
Reggie Workman: bass
Gerry Hemingway: dr
Marilyn Crispell: p
Jeanne Lee: v
Jason Hwang: vln
Don Byron: cl
Any questions -> support@pro-jazz.com. По всем вопросам пишите -> support@pro-jazz.com
09:37
133
Нет комментариев. Ваш будет первым!