Вы используете незарегистрированную версию компонента "Вкладки"!

Поиск

(Free Jazz) 7k Oaks (Alfred 23 Harth, Fabrizio Spera, Luca Venitucci, Massimo Pupillo) - Entelechy - 2011, FLAC (tracks+.cue), lossless

(Free Jazz) 7k Oaks (Alfred 23 Harth, Fabrizio Spera, Luca Venitucci, Massimo Pupillo) - Entelechy - 2011, FLAC (tracks+.cue), lossless
Треклист:
7k Oaks / Entelechy
Жанр: Free Jazz
Страна-производитель диска: Италия
Год издания диска: 2011
Издатель (лейбл): DIE SCHACHTEL
Номер по каталогу: DSZ13 CD
Страна: Италия, Германия
Аудиокодек: FLAC (*.flac)
Тип рипа: tracks+.cue
Битрейт аудио: lossless
Продолжительность: 43:28
Источник (релизер): вот.сиди (beariksson)
Наличие сканов в содержимом раздачи: нет
Треклист:
1 Seon Avalanche
2 Soziale Plastik
3 Labor Anti-Brouillard
4 At Last I Am Free
Recorded live at the Open Circuit-Interact Festival, Hasselt, Beligum, May 2008. Mixed in Rome 2009.
 
Лог создания рипа
X Lossless Decoder version 20110528 (134.0)
XLD extraction logfile from 2011-06-02 11:49:20 +0200
7K Oaks / Entelechy
Used drive : MATSHITA DVD-R UJ-898 (revision HC10)
Ripper mode : CDParanoia III 10.2
Disable audio cache : OK for the drive with a cache less than 2750KiB
Make use of C2 pointers : NO
Read offset correction : 102
Max retry count : 100
Gap status : Analyzed, Appended (except HTOA)
TOC of the extracted CD
Track | Start | Length | Start sector | End sector
---------------------------------------------------------
1 | 00:00:00 | 17:06:14 | 0 | 76963
2 | 17:06:14 | 07:09:49 | 76964 | 109187
3 | 24:15:63 | 12:19:04 | 109188 | 164616
4 | 36:34:67 | 06:52:55 | 164617 | 195571
AccurateRip Summary
Disc not found in AccurateRip DB.
All Tracks
Album gain : -10.00 dB
Peak : 0.983124
Statistics
Read error : 0
Skipped (treated as error) : 0
Edge jitter error (maybe fixed) : 0
Atom jitter error (maybe fixed) : 0
Drift error (maybe fixed) : 0
Dropped bytes error (maybe fixed) : 0
Duplicated bytes error (maybe fixed) : 0
Track 01
Filename : /XLD/01 - Seon Avalanche.flac
Pre-gap length : 00:02:00
Track gain : -10.49 dB
Peak : 0.983124
CRC32 hash (test run) : C6E4901F
CRC32 hash : C6E4901F
CRC32 hash (skip zero) : B2B73D5A
AccurateRip signature : 1078C93F
->Track not present in AccurateRip database.
Statistics
Read error : 0
Skipped (treated as error) : 0
Edge jitter error (maybe fixed) : 0
Atom jitter error (maybe fixed) : 0
Drift error (maybe fixed) : 0
Dropped bytes error (maybe fixed) : 0
Duplicated bytes error (maybe fixed) : 0
Inconsistency in error sectors : 0
Track 02
Filename : /XLD/02 - Soziale Plastik.flac
Track gain : -0.74 dB
Peak : 0.983093
CRC32 hash (test run) : 27753DB7
CRC32 hash : 27753DB7
CRC32 hash (skip zero) : 1A4AF077
AccurateRip signature : BD1C34D5
->Track not present in AccurateRip database.
Statistics
Read error : 0
Skipped (treated as error) : 0
Edge jitter error (maybe fixed) : 0
Atom jitter error (maybe fixed) : 0
Drift error (maybe fixed) : 0
Dropped bytes error (maybe fixed) : 0
Duplicated bytes error (maybe fixed) : 0
Inconsistency in error sectors : 0
Track 03
Filename : /XLD/03 - Labor Anti-Brouillard.flac
Track gain : -6.03 dB
Peak : 0.983124
CRC32 hash (test run) : B06AC3E3
CRC32 hash : B06AC3E3
CRC32 hash (skip zero) : 3763A938
AccurateRip signature : 94AAEBD9
->Track not present in AccurateRip database.
Statistics
Read error : 0
Skipped (treated as error) : 0
Edge jitter error (maybe fixed) : 0
Atom jitter error (maybe fixed) : 0
Drift error (maybe fixed) : 0
Dropped bytes error (maybe fixed) : 0
Duplicated bytes error (maybe fixed) : 0
Inconsistency in error sectors : 0
Track 04
Filename : /XLD/04 - At Last I Am Free.flac
Track gain : -10.46 dB
Peak : 0.983124
CRC32 hash (test run) : D6244F3E
CRC32 hash : D6244F3E
CRC32 hash (skip zero) : 9E2D8ABC
AccurateRip signature : 488F18B7
->Track not present in AccurateRip database.
Statistics
Read error : 0
Skipped (treated as error) : 0
Edge jitter error (maybe fixed) : 0
Atom jitter error (maybe fixed) : 0
Drift error (maybe fixed) : 0
Dropped bytes error (maybe fixed) : 0
Duplicated bytes error (maybe fixed) : 0
Inconsistency in error sectors : 0
No errors occurred
End of status report
 
Содержание индексной карты (.CUE)
TITLE "Entelechy"
PERFORMER "7K Oaks"
REM DATE "2011"
REM DISCID 300A2F04
FILE "01 - Seon Avalanche.wav" WAVE
TRACK 01 AUDIO
TITLE "Seon Avalanche"
INDEX 01 00:00:00
FILE "02 - Soziale Plastik.wav" WAVE
TRACK 02 AUDIO
TITLE "Soziale Plastik"
INDEX 01 00:00:00
FILE "03 - Labor Anti-Brouillard.wav" WAVE
TRACK 03 AUDIO
TITLE "Labor Anti-Brouillard"
INDEX 01 00:00:00
FILE "04 - At Last I Am Free.wav" WAVE
TRACK 04 AUDIO
TITLE "At Last I Am Free"
INDEX 01 00:00:00
 
Лог проверки качества
AUDIOCHECKER v2.0 beta (build 457) - by Dester - opdester@freemail.hu
~~~~~~~~~~~~~~~~~~~~~~~~~~~~~~~~~~
-=== DO NOT EDIT THIS FILE! ===-
Path: ...\7k Oaks - Entelechy (2011) FLAC
1 -=- 01 - Seon Avalanche.flac -=- CDDA (100%)
2 -=- 02 - Soziale Plastik.flac -=- CDDA (100%)
3 -=- 03 - Labor Anti-Brouillard.flac -=- CDDA (99%)
4 -=- 04 - At Last I Am Free.flac -=- CDDA (100%)
Summary 99,75% CDDA
225474404
 
Состав
Alfred 23 Harth tenor saxophone, bass clarinet, pocket trumpet, electronics
Fabrizio Spera drums, percussion
Luca Venitucci keyboards
Massimo Pupillo bass
По всем вопросам пишите личное сообщение пользователю M0p94ok.
13:23
209
Нет комментариев. Ваш будет первым!