Вы используете незарегистрированную версию компонента "Вкладки"!

Поиск

(avant-garde) New York Contemporary Five (Don Cherry, Archie Shepp, John Tchicai, Don Moore, J.C. Moses) - Consequences (1963) , FLAC (tracks+.cue), lossless

Треклист:

New York Contemporary Five - Consequences (1963)
Жанр: avant-garde
Год издания диска: 1963
Издатель (лейбл): Fontana PHCE-1001
Аудиокодек: FLAC (*.flac)
Тип рипа: tracks+.cue
Битрейт аудио: lossless
Продолжительность: 45`56
Источник (релизер): what.cd
Наличие сканов в содержимом раздачи: нет
John Tchicai - alto sax
Archie Shepp - tenor sax
Don Cherry - trumpet
Don Moore - bass
J.C. Moses - drums
Recorded:
Track 3: October 12, 1963 NYC
Other tracks: August 23, 1963 NYC
Треклист:
01 - Sound Barrier
02 - Wo Wo
03 - Consequences
04 - Rufus
05 - Crepescule With Nellie
06 - Trio

 
Лог создания рипа
Exact Audio Copy V0.99 prebeta 4 from 23. January 2008
EAC extraction logfile from 15. May 2008, 10:34
New York Contemporary Five / Consequences
Used drive : _NEC DVD_RW ND-3520A Adapter: 1 ID: 0
Read mode : Secure
Utilize accurate stream : Yes
Defeat audio cache : Yes
Make use of C2 pointers : No
Read offset correction : 48
Overread into Lead-In and Lead-Out : No
Fill up missing offset samples with silence : Yes
Delete leading and trailing silent blocks : No
Null samples used in CRC calculations : Yes
Used interface : Installed external ASPI interface
Gap handling : Appended to previous track
Used output format : User Defined Encoder
Selected bitrate : 1024 kBit/s
Quality : High
Add ID3 tag : No
Command line compressor : C:\Program Files\FLAC\flac.exe
Additional command line options : -8 -V -T "ARTIST=%a" -T "TITLE=%t" -T "ALBUM=%g" -T "DATE=%y" -T "TRACKNUMBER=%n" -T "GENRE=%m" -T "COMMENT=EAC FLAC -8" %s
TOC of the extracted CD
Track | Start | Length | Start sector | End sector
---------------------------------------------------------
1 | 0:00.00 | 8:30.35 | 0 | 38284
2 | 8:30.35 | 8:49.65 | 38285 | 78024
3 | 17:20.25 | 7:44.07 | 78025 | 112831
4 | 25:04.32 | 9:32.20 | 112832 | 155751
5 | 34:36.52 | 2:24.28 | 155752 | 166579
6 | 37:01.05 | 8:54.62 | 166580 | 206691
Track 1
Filename C:\Documents and Settings\All Users\Documents\Uploads\P\New York Contemporary Five - Consequences (1963) [FLAC]\01 - Sound Barrier.wav
Pre-gap length 0:00:02.00
Peak level 82.8 %
Track quality 100.0 %
Test CRC 47129BA9
Copy CRC 47129BA9
Track not present in AccurateRip database
Copy OK
Track 2
Filename C:\Documents and Settings\All Users\Documents\Uploads\P\New York Contemporary Five - Consequences (1963) [FLAC]\02 - Wo Wo.wav
Pre-gap length 0:00:02.77
Peak level 87.4 %
Track quality 100.0 %
Test CRC 8D962080
Copy CRC 8D962080
Track not present in AccurateRip database
Copy OK
Track 3
Filename C:\Documents and Settings\All Users\Documents\Uploads\P\New York Contemporary Five - Consequences (1963) [FLAC]\03 - Consequences.wav
Pre-gap length 0:00:02.77
Peak level 100.0 %
Track quality 100.0 %
Test CRC DBB27CC3
Copy CRC DBB27CC3
Track not present in AccurateRip database
Copy OK
Track 4
Filename C:\Documents and Settings\All Users\Documents\Uploads\P\New York Contemporary Five - Consequences (1963) [FLAC]\04 - Rufus.wav
Pre-gap length 0:00:03.22
Peak level 100.0 %
Track quality 100.0 %
Test CRC F93EDFDB
Copy CRC F93EDFDB
Track not present in AccurateRip database
Copy OK
Track 5
Filename C:\Documents and Settings\All Users\Documents\Uploads\P\New York Contemporary Five - Consequences (1963) [FLAC]\05 - Crepuscule with Nellie.wav
Pre-gap length 0:00:02.89
Peak level 89.1 %
Track quality 100.0 %
Test CRC CAD87E63
Copy CRC CAD87E63
Track not present in AccurateRip database
Copy OK
Track 6
Filename C:\Documents and Settings\All Users\Documents\Uploads\P\New York Contemporary Five - Consequences (1963) [FLAC]\06 - Trio.wav
Pre-gap length 0:00:02.73
Peak level 89.3 %
Track quality 100.0 %
Test CRC 1ED919F0
Copy CRC 1ED919F0
Track not present in AccurateRip database
Copy OK
None of the tracks are present in the AccurateRip database
No errors occurred
End of status report
 
Содержание индексной карты (.CUE)
REM GENRE Jazz
REM DATE 1963
REM DISCID 370AC306
REM COMMENT "ExactAudioCopy v0.99pb4"
PERFORMER "New York Contemporary Five"
TITLE "Consequences"
FILE "01 - Sound Barrier.wav" WAVE
TRACK 01 AUDIO
TITLE "Sound Barrier"
PERFORMER "New York Contemporary Five"
INDEX 01 00:00:00
TRACK 02 AUDIO
TITLE "Wo Wo"
PERFORMER "New York Contemporary Five"
INDEX 00 08:27:52
FILE "02 - Wo Wo.wav" WAVE
INDEX 01 00:00:00
TRACK 03 AUDIO
TITLE "Consequences"
PERFORMER "New York Contemporary Five"
INDEX 00 08:47:07
FILE "03 - Consequences.wav" WAVE
INDEX 01 00:00:00
TRACK 04 AUDIO
TITLE "Rufus"
PERFORMER "New York Contemporary Five"
INDEX 00 07:40:65
FILE "04 - Rufus.wav" WAVE
INDEX 01 00:00:00
TRACK 05 AUDIO
TITLE "Crepuscule with Nellie"
PERFORMER "New York Contemporary Five"
INDEX 00 09:29:28
FILE "05 - Crepuscule with Nellie.wav" WAVE
INDEX 01 00:00:00
TRACK 06 AUDIO
TITLE "Trio"
PERFORMER "New York Contemporary Five"
INDEX 00 02:21:48
FILE "06 - Trio.wav" WAVE
INDEX 01 00:00:00
другие релизы
Any questions -> support@pro-jazz.com. По всем вопросам пишите -> support@pro-jazz.com
13:24
325
Нет комментариев. Ваш будет первым!