Вы используете незарегистрированную версию компонента "Вкладки"!

Поиск

(Free Improvisation) William Hooker, Lee Ranaldo - The Celestial Answer - 2005, FLAC (image+.cue), lossless

Треклист:
William Hooker, Lee Ranaldo / The Celestial Answer
Жанр: Free Improvisation
Страна-производитель диска: USA
Год издания: 2005
Издатель (лейбл): Xeric
Номер по каталогу: XER CD-102
Страна: USA
Аудиокодек: FLAC (*.flac)
Тип рипа: image+.cue
Битрейт аудио: lossless
Продолжительность: 64:39
Источник (релизер): Собственный CD
Наличие сканов в содержимом раздачи: да
Треклист:
1. Celestial 1/2 18:39
2. Celestial 1/1&2 16:07
3. Celestial 2/2 7:10
4. Celestial 3/1 16:33
5. Celestial 4/1 5:52
 
Лог создания рипа
Exact Audio Copy V1.0 beta 3 from 29. August 2011
Отчёт EAC об извлечении, выполненном 2. июня 2012, 13:39
William Hooker, Lee Ranaldo / The Celestial Answer
Дисковод: ATAPI iHAS120 6 Adapter: 3 ID: 0
Режим чтения : Достоверность
Использование точного потока : Да
Отключение кэша аудио : Да
Использование указателей C2 : Нет
Коррекция смещения при чтении : 6
Способность читать области Lead-in и Lead-out : Нет
Заполнение пропущенных сэмплов тишиной : Да
Удаление блоков с тишиной в начале и конце : Нет
При вычислениях CRC использовались нулевые сэмплы : Да
Интерфейс : Встроенный Win32-интерфейс для Win NT/2000
Выходной формат : Пользовательский кодировщик
Выбранный битрейт : 768 kBit/s
Качество : Высокий
Добавление ID3-тега : Нет
Утилита сжатия : C:\Program Files (x86)\Exact Audio Copy\FLAC\FLAC.EXE
Дополнительные параметры : -6 -V -T "ARTIST=%artist%" -T "TITLE=%title%" -T "ALBUM=%albumtitle%" -T "DATE=%year%" -T "TRACKNUMBER=%tracknr%" -T "GENRE=%genre%" -T "COMMENT=%comment%" -T "BAND=%albuminterpret%" -T "ALBUMARTIST=%albuminterpret%" -T "COMPOSER=%composer%" %haslyrics%--tag-from-file=LYRICS="%lyricsfile%"%haslyrics% -T "DISCNUMBER=%cdnumber%" -T "TOTALDISCS=%totalcds%" -T "TOTALTRACKS=%numtracks%" %hascover%--picture="%coverfile%"%hascover% %source% -o %dest%
TOC извлечённого CD
Трек | Старт | Длительность | Начальный сектор | Конечный сектор
---------------------------------------------------------------------
1 | 0:00.00 | 18:44.09 | 0 | 84308
2 | 18:44.09 | 16:10.68 | 84309 | 157126
3 | 34:55.02 | 7:11.73 | 157127 | 189524
4 | 42:07.00 | 16:39.17 | 189525 | 264466
5 | 58:46.17 | 5:52.39 | 264467 | 290905
Характеристики диапазона извлечения и сообщения об ошибках
Выбранный диапазон
Имя файла C:\Users\Sergey\Downloads\The Celestial Answer\William Hooker, Lee Ranaldo - The Celestial Answer.wav
Пиковый уровень 67.6 %
Скорость извлечения 8.7 X
Качество диапазона 99.9 %
CRC теста 8C9A4EE9
CRC копии 8C9A4EE9
Копирование... OK
Ошибок не произошло
AccurateRip: сводка
Трек 1 : извлечено точно (доверие 1) [60FEE096] (AR v1)
Трек 2 : извлечено точно (доверие 1) [268CC3B8] (AR v1)
Трек 3 : извлечено точно (доверие 1) [4169DAFD] (AR v1)
Трек 4 : извлечено точно (доверие 1) [81642D16] (AR v1)
Трек 5 : извлечено точно (доверие 1) [22A7FD63] (AR v1)
Все треки извлечены точно
Конец отчёта
---- CUETools DB Plugin V2.1.3
[CTDB TOCID: tn6feNLPvLkJLM__eL56MtelCB4-] disk not present in database, Submit result: tn6feNLPvLkJLM__eL56MtelCB4- has been uploaded
==== Контрольная сумма отчёта 33236F86B2B17BBBCAFAD8A50811F39E2B23FF13B5176C8A8C470770B6AAD392 ====
Any questions -> support@pro-jazz.com. По всем вопросам пишите -> support@pro-jazz.com
01:21
116
Нет комментариев. Ваш будет первым!