Вы используете незарегистрированную версию компонента "Вкладки"!

Поиск

(Avant-Garde Jazz, Free Improvisation) Lee Ranaldo, William Hooker, Jim O'Rourke, Gianni Gebbia - Clouds - 1997, FLAC (image+.cue), lossless

(Avant-Garde Jazz, Free Improvisation) Lee Ranaldo, William Hooker, Jim O'Rourke, Gianni Gebbia - Clouds - 1997, FLAC (image+.cue), lossless
Треклист:
Lee Ranaldo, William Hooker, Jim O'Rourke, Gianni Gebbia / Clouds
Жанр: Avant-Garde Jazz, Free Improvisation
Страна-производитель диска: Canada
Год издания: 1997
Издатель (лейбл): Les Disques Victo
Номер по каталогу: VICTO CD054
Страна: USA
Аудиокодек: FLAC (*.flac)
Тип рипа: image+.cue
Битрейт аудио: lossless
Продолжительность: 58:18
Источник (релизер): Собственный CD
Наличие сканов в содержимом раздачи: да
Треклист:
1. Vast Beings
2. 25 Views Of Florence
3. New Thought Life
4. Trees Lie Cut
5. Junkyard Language
6. No Apples Fell
7. Train Wreck
8. Nothing Was Revealed
9. Cloud Nine
 
Лог создания рипа
Exact Audio Copy V1.0 beta 3 from 29. August 2011
Отчёт EAC об извлечении, выполненном 2. июня 2012, 13:04
Lee Ranaldo, William Hooker, Jim O'Rourke, Gianni Gebbia / Clouds
Дисковод: ATAPI iHAS120 6 Adapter: 3 ID: 0
Режим чтения : Достоверность
Использование точного потока : Да
Отключение кэша аудио : Да
Использование указателей C2 : Нет
Коррекция смещения при чтении : 6
Способность читать области Lead-in и Lead-out : Нет
Заполнение пропущенных сэмплов тишиной : Да
Удаление блоков с тишиной в начале и конце : Нет
При вычислениях CRC использовались нулевые сэмплы : Да
Интерфейс : Встроенный Win32-интерфейс для Win NT/2000
Выходной формат : Пользовательский кодировщик
Выбранный битрейт : 768 kBit/s
Качество : Высокий
Добавление ID3-тега : Нет
Утилита сжатия : C:\Program Files (x86)\Exact Audio Copy\FLAC\FLAC.EXE
Дополнительные параметры : -6 -V -T "ARTIST=%artist%" -T "TITLE=%title%" -T "ALBUM=%albumtitle%" -T "DATE=%year%" -T "TRACKNUMBER=%tracknr%" -T "GENRE=%genre%" -T "COMMENT=%comment%" -T "BAND=%albuminterpret%" -T "ALBUMARTIST=%albuminterpret%" -T "COMPOSER=%composer%" %haslyrics%--tag-from-file=LYRICS="%lyricsfile%"%haslyrics% -T "DISCNUMBER=%cdnumber%" -T "TOTALDISCS=%totalcds%" -T "TOTALTRACKS=%numtracks%" %hascover%--picture="%coverfile%"%hascover% %source% -o %dest%
TOC извлечённого CD
Трек | Старт | Длительность | Начальный сектор | Конечный сектор
---------------------------------------------------------------------
1 | 0:00.00 | 5:57.57 | 0 | 26831
2 | 5:57.57 | 13:32.70 | 26832 | 87801
3 | 19:30.52 | 3:52.45 | 87802 | 105246
4 | 23:23.22 | 6:41.43 | 105247 | 135364
5 | 30:04.65 | 3:05.25 | 135365 | 149264
6 | 33:10.15 | 7:44.45 | 149265 | 184109
7 | 40:54.60 | 5:42.15 | 184110 | 209774
8 | 46:37.00 | 6:19.07 | 209775 | 238206
9 | 52:56.07 | 5:21.68 | 238207 | 262349
Характеристики диапазона извлечения и сообщения об ошибках
Выбранный диапазон
Имя файла C:\Users\Sergey\Downloads\Clouds\Lee Ranaldo, William Hooker, Jim O'Rourke, Gianni Gebbia - Clouds.wav
Пиковый уровень 100.0 %
Скорость извлечения 8.4 X
Качество диапазона 100.0 %
CRC теста F50A0318
CRC копии F50A0318
Копирование... OK
Ошибок не произошло
Конец отчёта
---- CUETools DB Plugin V2.1.3
[CTDB TOCID: 5rW7PDlb.lnv.mBGaw4PGa3A9Kc-] disk not present in database, Submit result: 5rW7PDlb.lnv.mBGaw4PGa3A9Kc- has been uploaded
==== Контрольная сумма отчёта 24EB42B434765C51522A1E22FA6EC72042B1E61D6BB8C6C8829670CB0F85BAAF ====
 
Об альбоме (сборнике)
Recorded live at the 14th Festival de Musique Actuelle de Victoriaville on May 19, 1997.
Digital and analogue tape assembly at Studio Echo Cañon, New York.
Any questions -> support@pro-jazz.com. По всем вопросам пишите -> support@pro-jazz.com
01:20
138
Нет комментариев. Ваш будет первым!