Вы используете незарегистрированную версию компонента "Вкладки"!

Поиск

(Free Improvisation, Unit Records) Yves Cerf - Samayac - 1994, FLAC (tracks+.cue), lossless

(Free Improvisation, Unit Records) Yves Cerf - Samayac - 1994, FLAC (tracks+.cue), lossless
Треклист:
Yves Cerf / Samayac
Жанр: Free Improvisation, Unit Records
Страна-производитель диска: Switzerland
Год издания: 1994
Издатель (лейбл): Unit Records
Номер по каталогу: UTR 4079 CD
Аудиокодек: FLAC (*.flac)
Тип рипа: tracks+.cue
Битрейт аудио: lossless
Продолжительность: 56:35
Источник (релизер): Max Monteiro
Наличие сканов в содержимом раздачи: нет
Треклист:
01. La Danse du minuscule monarque absolu 5:20
02. El mago loco 7:07
03. Samayac 3:27
04. Totem 4:46
05. Novembre 5:14
06. Último pelo – Gomina 4:14
07. Cassiopée 4:52
08. Cigare synthétik 6:45
09. Kena y trompetas 4:43
10. Tumbao 10:06
Toutes compositions: Yves Cerf.
 
Лог создания рипа
Exact Audio Copy V1.0 beta 3 from 29. August 2011
EAC extraction logfile from 15. May 2013, 9:42
Yves Cerf / Samayac
Used drive : SlimtypeeNAU508 5 Adapter: 1 ID: 0
Read mode : Secure
Utilize accurate stream : Yes
Defeat audio cache : Yes
Make use of C2 pointers : No
Read offset correction : 6
Overread into Lead-In and Lead-Out : No
Fill up missing offset samples with silence : Yes
Delete leading and trailing silent blocks : No
Null samples used in CRC calculations : Yes
Used interface : Native Win32 interface for Win NT & 2000
Gap handling : Appended to previous track
Used output format : User Defined Encoder
Selected bitrate : 768 kBit/s
Quality : High
Add ID3 tag : No
Command line compressor : C:\Program Files (x86)\Exact Audio Copy\Flac\flac.exe
Additional command line options : -8 -V -T "ARTIST=%artist%" -T "TITLE=%title%" -T "ALBUM=%albumtitle%" -T "DATE=%year%" -T "TRACKNUMBER=%tracknr%" -T "GENRE=%genre%" -T "PERFORMER=%albuminterpret%" -T "COMPOSER=%composer%" %haslyrics%--tag-from-file=LYRICS="%lyricsfile%"%haslyrics% -T "ALBUMARTIST=%albumartist%" -T "DISCNUMBER=%cdnumber%" -T "TOTALDISCS=%totalcds%" -T "TOTALTRACKS=%numtracks%" -T "COMMENT=%comment%" %source% -o %dest%
TOC of the extracted CD
Track | Start | Length | Start sector | End sector
---------------------------------------------------------
1 | 0:00.00 | 5:19.67 | 0 | 23991
2 | 5:19.67 | 7:07.25 | 23992 | 56041
3 | 12:27.17 | 3:27.00 | 56042 | 71566
4 | 15:54.17 | 4:45.65 | 71567 | 93006
5 | 20:40.07 | 5:14.08 | 93007 | 116564
6 | 25:54.15 | 4:14.37 | 116565 | 135651
7 | 30:08.52 | 4:52.00 | 135652 | 157551
8 | 35:00.52 | 6:45.08 | 157552 | 187934
9 | 41:45.60 | 4:42.60 | 187935 | 209144
10 | 46:28.45 | 10:06.27 | 209145 | 254621
Track 1
Filename C:\EAC rips\01 - La Danse du minuscule monarque absolu.wav
Pre-gap length 0:00:02.00
Peak level 100.0 %
Extraction speed 1.1 X
Track quality 100.0 %
Test CRC EE7AED38
Copy CRC EE7AED38
Accurately ripped (confidence 1) [908D4A7D] (AR v1)
Copy OK
Track 2
Filename C:\EAC rips\02 - El mago loco.wav
Pre-gap length 0:00:02.40
Peak level 90.4 %
Extraction speed 1.3 X
Track quality 100.0 %
Test CRC 5C08B315
Copy CRC 5C08B315
Accurately ripped (confidence 1) [F03EBDE9] (AR v1)
Copy OK
Track 3
Filename C:\EAC rips\03 - Samayac.wav
Pre-gap length 0:00:02.47
Peak level 84.9 %
Extraction speed 1.3 X
Track quality 100.0 %
Test CRC CB83DB40
Copy CRC CB83DB40
Accurately ripped (confidence 1) [07CD2B81] (AR v1)
Copy OK
Track 4
Filename C:\EAC rips\04 - Totem.wav
Pre-gap length 0:00:02.35
Peak level 100.0 %
Extraction speed 1.3 X
Track quality 99.9 %
Test CRC 0479509C
Copy CRC 0479509C
Accurately ripped (confidence 1) [878D1879] (AR v1)
Copy OK
Track 5
Filename C:\EAC rips\05 - Novembre.wav
Pre-gap length 0:00:02.51
Peak level 38.3 %
Extraction speed 1.6 X
Track quality 100.0 %
Test CRC 2F85074D
Copy CRC 2F85074D
Accurately ripped (confidence 1) [4A4F40CF] (AR v1)
Copy OK
Track 6
Filename C:\EAC rips\06 - Último pelo - Gomina.wav
Pre-gap length 0:00:03.15
Peak level 100.0 %
Extraction speed 1.7 X
Track quality 100.0 %
Test CRC CB8A8C30
Copy CRC CB8A8C30
Accurately ripped (confidence 1) [715FD12D] (AR v1)
Copy OK
Track 7
Filename C:\EAC rips\07 - Cassiopée.wav
Pre-gap length 0:00:02.42
Peak level 88.6 %
Extraction speed 1.8 X
Track quality 100.0 %
Test CRC 17698D2A
Copy CRC 17698D2A
Accurately ripped (confidence 1) [6F54FBEB] (AR v1)
Copy OK
Track 8
Filename C:\EAC rips\08 - Cigare synthétik.wav
Pre-gap length 0:00:03.26
Peak level 100.0 %
Extraction speed 2.0 X
Track quality 100.0 %
Test CRC F41D4A4C
Copy CRC F41D4A4C
Accurately ripped (confidence 1) [664FFE83] (AR v1)
Copy OK
Track 9
Filename C:\EAC rips\09 - Kena y trompetas.wav
Pre-gap length 0:00:02.42
Peak level 33.5 %
Extraction speed 2.0 X
Track quality 100.0 %
Test CRC 56C51099
Copy CRC 56C51099
Accurately ripped (confidence 1) [D1C02137] (AR v1)
Copy OK
Track 10
Filename C:\EAC rips\10 - Tumbao.wav
Pre-gap length 0:00:03.13
Peak level 99.7 %
Extraction speed 2.2 X
Track quality 100.0 %
Test CRC 704B5DB7
Copy CRC 704B5DB7
Accurately ripped (confidence 1) [D9068A86] (AR v1)
Copy OK
All tracks accurately ripped
No errors occurred
End of status report
---- CUETools DB Plugin V2.1.4
[CTDB TOCID: zkIEDtCoZc7P6zsbBHY6yUNETQs-] disk not present in database
Submit result: zkIEDtCoZc7P6zsbBHY6yUNETQs- has been uploaded
==== Log checksum 840F5E6D6FDB392F3DC9B8AFA492967D60E295692D043276E209805A91FE492A ====
 
Содержание индексной карты (.CUE)
REM GENRE Jazz
REM DATE 1994
REM DISCID 790D420A
REM COMMENT "ExactAudioCopy v1.0b3"
PERFORMER "Yves Cerf"
TITLE "Samayac"
FILE "01 - La Danse du minuscule monarque absolu.wav" WAVE
TRACK 01 AUDIO
TITLE "La Danse du minuscule monarque absolu"
PERFORMER "Yves Cerf"
INDEX 01 00:00:00
TRACK 02 AUDIO
TITLE "El mago loco"
PERFORMER "Yves Cerf"
INDEX 00 05:17:27
FILE "02 - El mago loco.wav" WAVE
INDEX 01 00:00:00
TRACK 03 AUDIO
TITLE "Samayac"
PERFORMER "Yves Cerf"
INDEX 00 07:04:53
FILE "03 - Samayac.wav" WAVE
INDEX 01 00:00:00
TRACK 04 AUDIO
TITLE "Totem"
PERFORMER "Yves Cerf"
INDEX 00 03:24:40
FILE "04 - Totem.wav" WAVE
INDEX 01 00:00:00
TRACK 05 AUDIO
TITLE "Novembre"
PERFORMER "Yves Cerf"
INDEX 00 04:43:14
FILE "05 - Novembre.wav" WAVE
INDEX 01 00:00:00
TRACK 06 AUDIO
TITLE "Último pelo - Gomina"
PERFORMER "Yves Cerf"
INDEX 00 05:10:68
FILE "06 - Último pelo - Gomina.wav" WAVE
INDEX 01 00:00:00
TRACK 07 AUDIO
TITLE "Cassiopée"
PERFORMER "Yves Cerf"
INDEX 00 04:11:70
FILE "07 - Cassiopée.wav" WAVE
INDEX 01 00:00:00
TRACK 08 AUDIO
TITLE "Cigare synthétik"
PERFORMER "Yves Cerf"
INDEX 00 04:48:49
FILE "08 - Cigare synthétik.wav" WAVE
INDEX 01 00:00:00
TRACK 09 AUDIO
TITLE "Kena y trompetas"
PERFORMER "Yves Cerf"
INDEX 00 06:42:41
FILE "09 - Kena y trompetas.wav" WAVE
INDEX 01 00:00:00
TRACK 10 AUDIO
TITLE "Tumbao"
PERFORMER "Yves Cerf"
INDEX 00 04:39:47
FILE "10 - Tumbao.wav" WAVE
INDEX 01 00:00:00
Доп. информация: Enregistré « comme au studio »… en public les 18 et 19 décembre 1993, au Sud des Alpes (AMR Genève).
 
Состав
Raul Esmerode – batterie, percussion
Horacio Fumero – contrebasse
Yves Massy – trombone, trompette
Carlos Baumann – trompette, bugle
Ian Gordon-Lennox – trompette, euphonium, tuba
Yves Cerf – saxophones, kena
По всем вопросам пишите личное сообщение пользователю M0p94ok.
13:20
161
Нет комментариев. Ваш будет первым!