Вы используете незарегистрированную версию компонента "Вкладки"!

Поиск

(Free Improvisation, Unit Records) Droles d’oiseaux: Christine Schaller / Jacques Siron / Jean-Jacques Pedretti / Robert Morgenthaler - Droles d'oiseaux - 1996, FLAC (tracks+.cue), lossless

(Free Improvisation, Unit Records) Droles d’oiseaux: Christine Schaller / Jacques Siron / Jean-Jacques Pedretti / Robert Morgenthaler - Droles d'oiseaux - 1996, FLAC (tracks+.cue), lossless
Треклист:
Drôles d’oiseaux: Christine Schaller / Jacques Siron / Jean-Jacques Pedretti / Robert Morgenthaler - Drôles d'oiseaux
Жанр: Free Improvisation, Unit Records
Страна-производитель диска: Switzerland
Год издания: 1996
Издатель (лейбл): Unit Records
Номер по каталогу: UTR 4101 CD
Аудиокодек: FLAC (*.flac)
Тип рипа: tracks+.cue
Битрейт аудио: lossless
Продолжительность: 46:39
Источник (релизер): Max Monteiro
Наличие сканов в содержимом раздачи: нет
Треклист:
01. Mais où est donc Ornette ? (Jacques Siron) 3:53
02. L’Ornithorynque amoureux (Jean-Jacques Pedretti, Christine Schaller, Jacques Siron)* 2:20
03. Mosquito (Christine Schaller) 4:39
04. Le Jars et le Renard (Jacques Siron, Robert Morgenthaler)* 1:26
05. Ultime Volière (Drôles d’oiseaux)* 2:45
06. Le Canari encanaillé (Jacques Siron, Jean-Jacques Pedretti)* 1:50
07. Le Piston jaune (Drôles d’oiseaux, texte : Jacques Siron)* 2:25
08. L’Amour (Christine Schaller) 2:40
09. Plumes de kangourou (Jacques Siron, Jean-Jacques Pedretti)* 2:06
10. Le Rossignol de Chine (Christine Schaller) 4:18
11. Vol de nyctalopes (Christine Schaller, Jacques Siron)* 1:03
12. Le Paon élégiaque (Jacques Siron, Jean-Jacques Pedretti)* 2:00
13. La Roue (Jacques Siron, texte et musique) 4:49
14. Étoiles de colibri (Christine Schaller, Jacques Siron, Jean-Jacques Pedretti)* 3:31
15. Prise de becs (Christine Schaller, Jacques Siron)* 2:10
16. Silence(s) (Christine Schaller) 4:44
* = freely improvised
 
Лог создания рипа
Exact Audio Copy V1.0 beta 3 from 29. August 2011
EAC extraction logfile from 14. May 2013, 20:20
Drôles d'oiseaux: Christine Schaller / Jacques Siron / Jean-Jacques Pedretti / Robert Morgenthaler / Drôles d'oiseaux
Used drive : SlimtypeeNAU508 5 Adapter: 1 ID: 0
Read mode : Secure
Utilize accurate stream : Yes
Defeat audio cache : Yes
Make use of C2 pointers : No
Read offset correction : 6
Overread into Lead-In and Lead-Out : No
Fill up missing offset samples with silence : Yes
Delete leading and trailing silent blocks : No
Null samples used in CRC calculations : Yes
Used interface : Native Win32 interface for Win NT & 2000
Gap handling : Appended to previous track
Used output format : User Defined Encoder
Selected bitrate : 768 kBit/s
Quality : High
Add ID3 tag : No
Command line compressor : C:\Program Files (x86)\Exact Audio Copy\Flac\flac.exe
Additional command line options : -8 -V -T "ARTIST=%artist%" -T "TITLE=%title%" -T "ALBUM=%albumtitle%" -T "DATE=%year%" -T "TRACKNUMBER=%tracknr%" -T "GENRE=%genre%" -T "PERFORMER=%albuminterpret%" -T "COMPOSER=%composer%" %haslyrics%--tag-from-file=LYRICS="%lyricsfile%"%haslyrics% -T "ALBUMARTIST=%albumartist%" -T "DISCNUMBER=%cdnumber%" -T "TOTALDISCS=%totalcds%" -T "TOTALTRACKS=%numtracks%" -T "COMMENT=%comment%" %source% -o %dest%
TOC of the extracted CD
Track | Start | Length | Start sector | End sector
---------------------------------------------------------
1 | 0:00.00 | 3:52.47 | 0 | 17446
2 | 3:52.47 | 2:19.55 | 17447 | 27926
3 | 6:12.27 | 4:38.53 | 27927 | 48829
4 | 10:51.05 | 1:26.07 | 48830 | 55286
5 | 12:17.12 | 2:44.60 | 55287 | 67646
6 | 15:01.72 | 1:50.13 | 67647 | 75909
7 | 16:52.10 | 2:25.12 | 75910 | 86796
8 | 19:17.22 | 2:40.32 | 86797 | 98828
9 | 21:57.54 | 2:06.11 | 98829 | 108289
10 | 24:03.65 | 4:17.62 | 108290 | 127626
11 | 28:21.52 | 1:03.18 | 127627 | 132369
12 | 29:24.70 | 2:00.02 | 132370 | 141371
13 | 31:24.72 | 4:48.43 | 141372 | 163014
14 | 36:13.40 | 3:31.27 | 163015 | 178866
15 | 39:44.67 | 2:10.18 | 178867 | 188634
16 | 41:55.10 | 4:43.45 | 188635 | 209904
Track 1
Filename C:\EAC rips\01 - Mais où est donc Ornette _.wav
Pre-gap length 0:00:02.00
Peak level 99.4 %
Extraction speed 1.0 X
Track quality 100.0 %
Test CRC 8BF51473
Copy CRC 8BF51473
Track not present in AccurateRip database
Copy OK
Track 2
Filename C:\EAC rips\02 - L'Ornithorynque amoureux.wav
Pre-gap length 0:00:02.60
Peak level 52.7 %
Extraction speed 1.0 X
Track quality 100.0 %
Test CRC D7012E03
Copy CRC D7012E03
Track not present in AccurateRip database
Copy OK
Track 3
Filename C:\EAC rips\03 - Mosquito.wav
Pre-gap length 0:00:03.25
Peak level 35.1 %
Extraction speed 1.3 X
Track quality 100.0 %
Test CRC 39DECE77
Copy CRC 39DECE77
Track not present in AccurateRip database
Copy OK
Track 4
Filename C:\EAC rips\04 - Le Jars et le Renard.wav
Pre-gap length 0:00:05.48
Peak level 76.0 %
Extraction speed 1.0 X
Track quality 100.0 %
Test CRC E34CA67A
Copy CRC E34CA67A
Track not present in AccurateRip database
Copy OK
Track 5
Filename C:\EAC rips\05 - Ultime Volière.wav
Pre-gap length 0:00:03.60
Peak level 56.4 %
Extraction speed 1.3 X
Track quality 100.0 %
Test CRC F604FAED
Copy CRC F604FAED
Track not present in AccurateRip database
Copy OK
Track 6
Filename C:\EAC rips\06 - Le Canari encanaillé.wav
Pre-gap length 0:00:04.45
Peak level 72.7 %
Extraction speed 1.2 X
Track quality 100.0 %
Test CRC 9CEFBE68
Copy CRC 9CEFBE68
Track not present in AccurateRip database
Copy OK
Track 7
Filename C:\EAC rips\07 - Le Piston jaune.wav
Pre-gap length 0:00:00.19
Peak level 73.9 %
Extraction speed 1.3 X
Track quality 100.0 %
Test CRC E6D44DE9
Copy CRC E6D44DE9
Track not present in AccurateRip database
Copy OK
Track 8
Filename C:\EAC rips\08 - L' Amour.wav
Pre-gap length 0:00:01.67
Peak level 63.1 %
Extraction speed 1.4 X
Track quality 100.0 %
Test CRC 1FDA7226
Copy CRC 1FDA7226
Track not present in AccurateRip database
Copy OK
Track 9
Filename C:\EAC rips\09 - Plumes de kangourou.wav
Pre-gap length 0:00:05.42
Peak level 64.0 %
Extraction speed 1.1 X
Track quality 99.9 %
Test CRC 040985EA
Copy CRC 040985EA
Track not present in AccurateRip database
Copy OK
Track 10
Filename C:\EAC rips\10 - Le Rossignol de Chine.wav
Pre-gap length 0:00:03.65
Peak level 68.8 %
Extraction speed 1.6 X
Track quality 100.0 %
Test CRC 78B2673F
Copy CRC 78B2673F
Track not present in AccurateRip database
Copy OK
Track 11
Filename C:\EAC rips\11 - Vol de nyctalopes.wav
Pre-gap length 0:00:05.25
Peak level 57.2 %
Extraction speed 1.2 X
Track quality 100.0 %
Test CRC 106219CF
Copy CRC 106219CF
Track not present in AccurateRip database
Copy OK
Track 12
Filename C:\EAC rips\12 - Le Paon élégiaque.wav
Pre-gap length 0:00:02.20
Peak level 32.3 %
Extraction speed 1.5 X
Track quality 100.0 %
Test CRC B3C76E4D
Copy CRC B3C76E4D
Track not present in AccurateRip database
Copy OK
Track 13
Filename C:\EAC rips\13 - La Roue.wav
Pre-gap length 0:00:00.35
Peak level 54.3 %
Extraction speed 1.8 X
Track quality 100.0 %
Test CRC 379389A7
Copy CRC 379389A7
Track not present in AccurateRip database
Copy OK
Track 14
Filename C:\EAC rips\14 - Étoiles de colibri.wav
Pre-gap length 0:00:04.08
Peak level 45.9 %
Extraction speed 1.8 X
Track quality 100.0 %
Test CRC F6F98D37
Copy CRC F6F98D37
Track not present in AccurateRip database
Copy OK
Track 15
Filename C:\EAC rips\15 - Prise de becs.wav
Pre-gap length 0:00:04.60
Peak level 78.2 %
Extraction speed 1.7 X
Track quality 100.0 %
Test CRC 76D0864B
Copy CRC 76D0864B
Track not present in AccurateRip database
Copy OK
Track 16
Filename C:\EAC rips\16 - Silence(s).wav
Pre-gap length 0:00:06.45
Peak level 73.7 %
Extraction speed 2.0 X
Track quality 100.0 %
Test CRC D008F22B
Copy CRC D008F22B
Track not present in AccurateRip database
Copy OK
None of the tracks are present in the AccurateRip database
No errors occurred
End of status report
---- CUETools DB Plugin V2.1.4
[CTDB TOCID: ItSYtfTeJGFfGIIdxmLWog2JV18-] disk not present in database
Submit result: ItSYtfTeJGFfGIIdxmLWog2JV18- has been uploaded
==== Log checksum 4CB4478F87196D91E0EFA5B8C37C86667F52ED99856E4B21ACB747BD68591783 ====
 
Содержание индексной карты (.CUE)
REM GENRE Jazz
REM DATE 1996
REM DISCID DF0AEE10
REM COMMENT "ExactAudioCopy v1.0b3"
PERFORMER "Drôles d'oiseaux: Christine Schaller / Jacques Siron / Jean-Jacques Pedretti / Robert Morgenthaler"
TITLE "Drôles d'oiseaux"
FILE "01 - Mais où est donc Ornette _.wav" WAVE
TRACK 01 AUDIO
TITLE "Mais où est donc Ornette ?"
PERFORMER "Drôles d'oiseaux: Christine Schaller / Jacques Siron / Jean-Jacques Pedretti / Robert Morgenthaler"
INDEX 01 00:00:00
TRACK 02 AUDIO
TITLE "L'Ornithorynque amoureux"
PERFORMER "Drôles d'oiseaux: Christine Schaller / Jacques Siron / Jean-Jacques Pedretti / Robert Morgenthaler"
INDEX 00 03:49:62
FILE "02 - L'Ornithorynque amoureux.wav" WAVE
INDEX 01 00:00:00
TRACK 03 AUDIO
TITLE "Mosquito"
PERFORMER "Drôles d'oiseaux: Christine Schaller / Jacques Siron / Jean-Jacques Pedretti / Robert Morgenthaler"
INDEX 00 02:16:30
FILE "03 - Mosquito.wav" WAVE
INDEX 01 00:00:00
TRACK 04 AUDIO
TITLE "Le Jars et le Renard"
PERFORMER "Drôles d'oiseaux: Christine Schaller / Jacques Siron / Jean-Jacques Pedretti / Robert Morgenthaler"
INDEX 00 04:33:05
FILE "04 - Le Jars et le Renard.wav" WAVE
INDEX 01 00:00:00
TRACK 05 AUDIO
TITLE "Ultime Volière"
PERFORMER "Drôles d'oiseaux: Christine Schaller / Jacques Siron / Jean-Jacques Pedretti / Robert Morgenthaler"
INDEX 00 01:22:22
FILE "05 - Ultime Volière.wav" WAVE
INDEX 01 00:00:00
TRACK 06 AUDIO
TITLE "Le Canari encanaillé"
PERFORMER "Drôles d'oiseaux: Christine Schaller / Jacques Siron / Jean-Jacques Pedretti / Robert Morgenthaler"
INDEX 00 02:40:15
FILE "06 - Le Canari encanaillé.wav" WAVE
INDEX 01 00:00:00
TRACK 07 AUDIO
TITLE "Le Piston jaune"
PERFORMER "Drôles d'oiseaux: Christine Schaller / Jacques Siron / Jean-Jacques Pedretti / Robert Morgenthaler"
INDEX 00 01:49:69
FILE "07 - Le Piston jaune.wav" WAVE
INDEX 01 00:00:00
TRACK 08 AUDIO
TITLE "L' Amour"
PERFORMER "Drôles d'oiseaux: Christine Schaller / Jacques Siron / Jean-Jacques Pedretti / Robert Morgenthaler"
INDEX 00 02:23:20
FILE "08 - L' Amour.wav" WAVE
INDEX 01 00:00:00
TRACK 09 AUDIO
TITLE "Plumes de kangourou"
PERFORMER "Drôles d'oiseaux: Christine Schaller / Jacques Siron / Jean-Jacques Pedretti / Robert Morgenthaler"
INDEX 00 02:34:65
FILE "09 - Plumes de kangourou.wav" WAVE
INDEX 01 00:00:00
TRACK 10 AUDIO
TITLE "Le Rossignol de Chine"
PERFORMER "Drôles d'oiseaux: Christine Schaller / Jacques Siron / Jean-Jacques Pedretti / Robert Morgenthaler"
INDEX 00 02:02:21
FILE "10 - Le Rossignol de Chine.wav" WAVE
INDEX 01 00:00:00
TRACK 11 AUDIO
TITLE "Vol de nyctalopes"
PERFORMER "Drôles d'oiseaux: Christine Schaller / Jacques Siron / Jean-Jacques Pedretti / Robert Morgenthaler"
INDEX 00 04:12:37
FILE "11 - Vol de nyctalopes.wav" WAVE
INDEX 01 00:00:00
TRACK 12 AUDIO
TITLE "Le Paon élégiaque"
PERFORMER "Drôles d'oiseaux: Christine Schaller / Jacques Siron / Jean-Jacques Pedretti / Robert Morgenthaler"
INDEX 00 01:00:73
FILE "12 - Le Paon élégiaque.wav" WAVE
INDEX 01 00:00:00
TRACK 13 AUDIO
TITLE "La Roue"
PERFORMER "Drôles d'oiseaux: Christine Schaller / Jacques Siron / Jean-Jacques Pedretti / Robert Morgenthaler"
INDEX 00 01:59:42
FILE "13 - La Roue.wav" WAVE
INDEX 01 00:00:00
TRACK 14 AUDIO
TITLE "Étoiles de colibri"
PERFORMER "Drôles d'oiseaux: Christine Schaller / Jacques Siron / Jean-Jacques Pedretti / Robert Morgenthaler"
INDEX 00 04:44:35
FILE "14 - Étoiles de colibri.wav" WAVE
INDEX 01 00:00:00
TRACK 15 AUDIO
TITLE "Prise de becs"
PERFORMER "Drôles d'oiseaux: Christine Schaller / Jacques Siron / Jean-Jacques Pedretti / Robert Morgenthaler"
INDEX 00 03:26:42
FILE "15 - Prise de becs.wav" WAVE
INDEX 01 00:00:00
TRACK 16 AUDIO
TITLE "Silence(s)"
PERFORMER "Drôles d'oiseaux: Christine Schaller / Jacques Siron / Jean-Jacques Pedretti / Robert Morgenthaler"
INDEX 00 02:03:48
FILE "16 - Silence(s).wav" WAVE
INDEX 01 00:00:00
Доп. информация: Recorded at RSR Espace 2, Lausanne / Switzerland, April 1994.
 
Состав
Christine Schaller – chant
Jacques Siron – contrebasse, voix
Jean-Jacques Pedretti – trombone
Robert Morgenthaler – trombone
Any questions -> support@pro-jazz.com. По всем вопросам пишите -> support@pro-jazz.com
13:21
166
Нет комментариев. Ваш будет первым!