Вы используете незарегистрированную версию компонента "Вкладки"!

Поиск

(Free Improvisation, Unit Records) Herve Provini - Musique amoureuse - 2002, FLAC (tracks+.cue), lossless

(Free Improvisation, Unit Records) Herve Provini - Musique amoureuse - 2002, FLAC (tracks+.cue), lossless
Треклист:
Hervé Provini / Musique amoureuse
Жанр: Free Improvisation, Unit Records
Страна-производитель диска: Switzerland
Год издания: 2002
Издатель (лейбл): Unit Records
Номер по каталогу: UTR 4137
Аудиокодек: FLAC (*.flac)
Тип рипа: tracks+.cue
Битрейт аудио: lossless
Продолжительность: 52:36
Источник (релизер): Max Monteiro
Наличие сканов в содержимом раздачи: нет
Треклист:
1. Comme une vague d’amour 5:18
2. Ténèbres et Lumières 10:13
3. Pluie d’amour 12:17
4. Amour suspendu 14:42
5. Abîme de la passion 10:05
Compositions, drums, computer by Hervé Provini.
 
Лог создания рипа
Exact Audio Copy V1.0 beta 3 from 29. August 2011
EAC extraction logfile from 6. May 2013, 11:27
Hervé Provini / Musique amoureuse
Used drive : SlimtypeeNAU508 5 Adapter: 1 ID: 0
Read mode : Secure
Utilize accurate stream : Yes
Defeat audio cache : Yes
Make use of C2 pointers : No
Read offset correction : 6
Overread into Lead-In and Lead-Out : No
Fill up missing offset samples with silence : Yes
Delete leading and trailing silent blocks : No
Null samples used in CRC calculations : Yes
Used interface : Native Win32 interface for Win NT & 2000
Gap handling : Appended to previous track
Used output format : User Defined Encoder
Selected bitrate : 768 kBit/s
Quality : High
Add ID3 tag : No
Command line compressor : C:\Program Files (x86)\Exact Audio Copy\Flac\flac.exe
Additional command line options : -8 -V -T "ARTIST=%artist%" -T "TITLE=%title%" -T "ALBUM=%albumtitle%" -T "DATE=%year%" -T "TRACKNUMBER=%tracknr%" -T "GENRE=%genre%" -T "PERFORMER=%albuminterpret%" -T "COMPOSER=%composer%" %haslyrics%--tag-from-file=LYRICS="%lyricsfile%"%haslyrics% -T "ALBUMARTIST=%albumartist%" -T "DISCNUMBER=%cdnumber%" -T "TOTALDISCS=%totalcds%" -T "TOTALTRACKS=%numtracks%" -T "COMMENT=%comment%" %source% -o %dest%
TOC of the extracted CD
Track | Start | Length | Start sector | End sector
---------------------------------------------------------
1 | 0:00.00 | 5:17.70 | 0 | 23844
2 | 5:17.70 | 10:13.21 | 23845 | 69840
3 | 15:31.16 | 12:17.18 | 69841 | 125133
4 | 27:48.34 | 14:42.00 | 125134 | 191283
5 | 42:30.34 | 10:05.07 | 191284 | 236665
Track 1
Filename C:\EAC rips\01 - Comme une vague d'amour.wav
Pre-gap length 0:00:02.00
Peak level 80.8 %
Extraction speed 2.2 X
Track quality 100.0 %
Test CRC 34204CD5
Copy CRC 34204CD5
Track not present in AccurateRip database
Copy OK
Track 2
Filename C:\EAC rips\02 - Ténèbres et Lumières.wav
Pre-gap length 0:00:05.18
Peak level 80.1 %
Extraction speed 2.8 X
Track quality 100.0 %
Test CRC 6C987F79
Copy CRC 6C987F79
Track not present in AccurateRip database
Copy OK
Track 3
Filename C:\EAC rips\03 - Pluie d'amour.wav
Pre-gap length 0:00:04.41
Peak level 80.4 %
Extraction speed 3.4 X
Track quality 100.0 %
Test CRC 20C61D9A
Copy CRC 20C61D9A
Track not present in AccurateRip database
Copy OK
Track 4
Filename C:\EAC rips\04 - Amour suspendu.wav
Pre-gap length 0:00:06.70
Peak level 81.1 %
Extraction speed 4.0 X
Track quality 100.0 %
Test CRC 08DD2525
Copy CRC 08DD2525
Track not present in AccurateRip database
Copy OK
Track 5
Filename C:\EAC rips\05 - Abîme de la passion.wav
Pre-gap length 0:00:06.18
Peak level 80.4 %
Extraction speed 4.3 X
Track quality 100.0 %
Test CRC 9F3C9439
Copy CRC 9F3C9439
Track not present in AccurateRip database
Copy OK
None of the tracks are present in the AccurateRip database
No errors occurred
End of status report
---- CUETools DB Plugin V2.1.4
[CTDB TOCID: CDlh34e34wS4Wdbrfi5r1V60Its-] disk not present in database
Submit result: CDlh34e34wS4Wdbrfi5r1V60Its- has been uploaded
==== Log checksum C27260D830433AC166D0C11EAE602A6500C47B8D61A59CB7415A3870E8F7EA44 ====
 
Содержание индексной карты (.CUE)
REM GENRE Jazz
REM DATE 2002
REM DISCID 3A0C5305
REM COMMENT "ExactAudioCopy v1.0b3"
PERFORMER "Hervé Provini"
TITLE "Musique amoureuse"
FILE "01 - Comme une vague d'amour.wav" WAVE
TRACK 01 AUDIO
TITLE "Comme une vague d'amour"
PERFORMER "Hervé Provini"
ISRC CH2170043701
INDEX 01 00:00:00
TRACK 02 AUDIO
TITLE "Ténèbres et Lumières"
PERFORMER "Hervé Provini"
ISRC CH2170043702
INDEX 00 05:12:52
FILE "02 - Ténèbres et Lumières.wav" WAVE
INDEX 01 00:00:00
TRACK 03 AUDIO
TITLE "Pluie d'amour"
PERFORMER "Hervé Provini"
ISRC CH2170043703
INDEX 00 10:08:55
FILE "03 - Pluie d'amour.wav" WAVE
INDEX 01 00:00:00
TRACK 04 AUDIO
TITLE "Amour suspendu"
PERFORMER "Hervé Provini"
ISRC CH2170043704
INDEX 00 12:10:23
FILE "04 - Amour suspendu.wav" WAVE
INDEX 01 00:00:00
TRACK 05 AUDIO
TITLE "Abîme de la passion"
PERFORMER "Hervé Provini"
ISRC CH2170043705
INDEX 00 14:35:57
FILE "05 - Abîme de la passion.wav" WAVE
INDEX 01 00:00:00
Any questions -> support@pro-jazz.com. По всем вопросам пишите -> support@pro-jazz.com
13:25
189
Нет комментариев. Ваш будет первым!