Вы используете незарегистрированную версию компонента "Вкладки"!

Поиск

(Free Improvisation, Unit Records) Double Jeu Trio - Actual Stories - 1995, FLAC (tracks+.cue), lossless

(Free Improvisation, Unit Records) Double Jeu Trio - Actual Stories - 1995, FLAC (tracks+.cue), lossless
Треклист:
Double Jeu Trio / Actual Stories
Жанр: Free Improvisation, Unit Records
Страна-производитель диска: Switzerland
Год издания: 1995
Номер по каталогу: UTR 4094 CD
Аудиокодек: FLAC (*.flac)
Тип рипа: tracks+.cue
Битрейт аудио: lossless
Продолжительность: 54:59
Источник (релизер): Max Monteiro
Наличие сканов в содержимом раздачи: нет
Треклист:
01. Crotales 3:15
02. Actualstories 6:14
03. Turnarounds 4:13
04. David’s Song 6:14
05. L’Enfer de Xique-Xique 6:49
06. Funny Jokes 3:49
07. Gentle Walk 6:11
08. Blue Birds 6:17
09. Three More Times to Go 5:46
10. Ping-Pong 6:09
Composition : François Chevrolet sauf 1 : Bernard Trontin ; 5 et 10 : Christian Graf.
Arrangements : Double Jeu Trio.
 
Лог создания рипа
Exact Audio Copy V1.0 beta 3 from 29. August 2011
EAC extraction logfile from 15. May 2013, 12:30
Double Jeu Trio / Actual Stories
Used drive : SlimtypeeNAU508 5 Adapter: 1 ID: 0
Read mode : Secure
Utilize accurate stream : Yes
Defeat audio cache : Yes
Make use of C2 pointers : No
Read offset correction : 6
Overread into Lead-In and Lead-Out : No
Fill up missing offset samples with silence : Yes
Delete leading and trailing silent blocks : No
Null samples used in CRC calculations : Yes
Used interface : Native Win32 interface for Win NT & 2000
Gap handling : Appended to previous track
Used output format : User Defined Encoder
Selected bitrate : 768 kBit/s
Quality : High
Add ID3 tag : No
Command line compressor : C:\Program Files (x86)\Exact Audio Copy\Flac\flac.exe
Additional command line options : -8 -V -T "ARTIST=%artist%" -T "TITLE=%title%" -T "ALBUM=%albumtitle%" -T "DATE=%year%" -T "TRACKNUMBER=%tracknr%" -T "GENRE=%genre%" -T "PERFORMER=%albuminterpret%" -T "COMPOSER=%composer%" %haslyrics%--tag-from-file=LYRICS="%lyricsfile%"%haslyrics% -T "ALBUMARTIST=%albumartist%" -T "DISCNUMBER=%cdnumber%" -T "TOTALDISCS=%totalcds%" -T "TOTALTRACKS=%numtracks%" -T "COMMENT=%comment%" %source% -o %dest%
TOC of the extracted CD
Track | Start | Length | Start sector | End sector
---------------------------------------------------------
1 | 0:00.00 | 3:15.27 | 0 | 14651
2 | 3:15.27 | 6:13.43 | 14652 | 42669
3 | 9:28.70 | 4:13.25 | 42670 | 61669
4 | 13:42.20 | 6:14.02 | 61670 | 89721
5 | 19:56.22 | 6:49.30 | 89722 | 120426
6 | 26:45.52 | 3:49.28 | 120427 | 137629
7 | 30:35.05 | 6:11.35 | 137630 | 165489
8 | 36:46.40 | 6:17.10 | 165490 | 193774
9 | 43:03.50 | 5:46.32 | 193775 | 219756
10 | 48:50.07 | 6:09.13 | 219757 | 247444
Track 1
Filename C:\EAC rips\01 - Crotales.wav
Pre-gap length 0:00:02.00
Peak level 99.4 %
Extraction speed 1.0 X
Track quality 100.0 %
Test CRC FD939CD1
Copy CRC FD939CD1
Accurately ripped (confidence 1) [66FC26AC] (AR v1)
Copy OK
Track 2
Filename C:\EAC rips\02 - Actualstories.wav
Pre-gap length 0:00:03.20
Peak level 99.2 %
Extraction speed 1.2 X
Track quality 100.0 %
Test CRC 94BC3A6D
Copy CRC 94BC3A6D
Accurately ripped (confidence 1) [527A76D3] (AR v1)
Copy OK
Track 3
Filename C:\EAC rips\03 - Turnarounds.wav
Pre-gap length 0:00:01.68
Peak level 99.2 %
Extraction speed 1.3 X
Track quality 100.0 %
Test CRC 2569F8E6
Copy CRC 2569F8E6
Accurately ripped (confidence 1) [E1C569AA] (AR v1)
Copy OK
Track 4
Filename C:\EAC rips\04 - David's Song.wav
Pre-gap length 0:00:05.52
Peak level 98.0 %
Extraction speed 1.5 X
Track quality 100.0 %
Test CRC 63A096EE
Copy CRC 63A096EE
Accurately ripped (confidence 1) [E08F58B1] (AR v1)
Copy OK
Track 5
Filename C:\EAC rips\05 - L'Enfer de Xique-Xique.wav
Pre-gap length 0:00:01.51
Peak level 98.2 %
Extraction speed 1.7 X
Track quality 100.0 %
Test CRC C9984144
Copy CRC C9984144
Accurately ripped (confidence 1) [513F207A] (AR v1)
Copy OK
Track 6
Filename C:\EAC rips\06 - Funny Jokes.wav
Pre-gap length 0:00:01.50
Peak level 98.0 %
Extraction speed 1.5 X
Track quality 99.9 %
Test CRC 9CB0756D
Copy CRC 9CB0756D
Accurately ripped (confidence 1) [DF2404E2] (AR v1)
Copy OK
Track 7
Filename C:\EAC rips\07 - Gentle Walk.wav
Pre-gap length 0:00:02.02
Peak level 97.5 %
Extraction speed 1.9 X
Track quality 100.0 %
Test CRC 4DEE4467
Copy CRC 4DEE4467
Accurately ripped (confidence 1) [223ECEBB] (AR v1)
Copy OK
Track 8
Filename C:\EAC rips\08 - Blue Birds.wav
Pre-gap length 0:00:04.08
Peak level 99.2 %
Extraction speed 1.8 X
Track quality 99.9 %
Test CRC D531E34D
Copy CRC D531E34D
Accurately ripped (confidence 1) [1C997C67] (AR v1)
Copy OK
Track 9
Filename C:\EAC rips\09 - Three More Times to Go.wav
Peak level 98.3 %
Extraction speed 2.1 X
Track quality 100.0 %
Test CRC EBBBAAAF
Copy CRC EBBBAAAF
Accurately ripped (confidence 1) [B0582557] (AR v1)
Copy OK
Track 10
Filename C:\EAC rips\10 - Ping-Pong.wav
Pre-gap length 0:00:01.71
Peak level 98.6 %
Extraction speed 2.0 X
Track quality 99.9 %
Test CRC 7D46FC79
Copy CRC 7D46FC79
Accurately ripped (confidence 1) [C2F077A0] (AR v1)
Copy OK
All tracks accurately ripped
No errors occurred
End of status report
---- CUETools DB Plugin V2.1.4
[CTDB TOCID: 8aKpMpc01tdQpslr_oNAiE9tRtk-] disk not present in database
Submit result: 8aKpMpc01tdQpslr_oNAiE9tRtk- has been uploaded
==== Log checksum 43280DD0565AA9C436189D9FDE1738A2405593E570EA03354DC84CA2B2D7C420 ====
 
Содержание индексной карты (.CUE)
REM GENRE Jazz
REM DATE 1995
REM DISCID 910CE30A
REM COMMENT "ExactAudioCopy v1.0b3"
PERFORMER "Double Jeu Trio"
TITLE "Actual Stories"
FILE "01 - Crotales.wav" WAVE
TRACK 01 AUDIO
TITLE "Crotales"
PERFORMER "Double Jeu Trio"
INDEX 01 00:00:00
TRACK 02 AUDIO
TITLE "Actualstories"
PERFORMER "Double Jeu Trio"
INDEX 00 03:12:07
FILE "02 - Actualstories.wav" WAVE
INDEX 01 00:00:00
TRACK 03 AUDIO
TITLE "Turnarounds"
PERFORMER "Double Jeu Trio"
INDEX 00 06:11:50
FILE "03 - Turnarounds.wav" WAVE
INDEX 01 00:00:00
TRACK 04 AUDIO
TITLE "David's Song"
PERFORMER "Double Jeu Trio"
INDEX 00 04:07:48
FILE "04 - David's Song.wav" WAVE
INDEX 01 00:00:00
TRACK 05 AUDIO
TITLE "L'Enfer de Xique-Xique"
PERFORMER "Double Jeu Trio"
INDEX 00 06:12:26
FILE "05 - L'Enfer de Xique-Xique.wav" WAVE
INDEX 01 00:00:00
TRACK 06 AUDIO
TITLE "Funny Jokes"
PERFORMER "Double Jeu Trio"
INDEX 00 06:47:55
FILE "06 - Funny Jokes.wav" WAVE
INDEX 01 00:00:00
TRACK 07 AUDIO
TITLE "Gentle Walk"
PERFORMER "Double Jeu Trio"
INDEX 00 03:47:26
FILE "07 - Gentle Walk.wav" WAVE
INDEX 01 00:00:00
TRACK 08 AUDIO
TITLE "Blue Birds"
PERFORMER "Double Jeu Trio"
INDEX 00 06:07:27
FILE "08 - Blue Birds.wav" WAVE
INDEX 01 00:00:00
FILE "09 - Three More Times to Go.wav" WAVE
TRACK 09 AUDIO
TITLE "Three More Times to Go"
PERFORMER "Double Jeu Trio"
INDEX 01 00:00:00
TRACK 10 AUDIO
TITLE "Ping-Pong"
PERFORMER "Double Jeu Trio"
INDEX 00 05:44:36
FILE "10 - Ping-Pong.wav" WAVE
INDEX 01 00:00:00
Доп. информация: Enregistrement sur Nagra D en mai 1995 chez Gatillon (France) (no overdubs).
 
Состав
François Chevrolet – Saxophones
Christian Graf – Guitare
Bernard Trontin – Percussions
Any questions -> support@pro-jazz.com. По всем вопросам пишите -> support@pro-jazz.com
13:24
162
Нет комментариев. Ваш будет первым!