Вы используете незарегистрированную версию компонента "Вкладки"!

Поиск

(Free Improvisation, Unit Records) Afro Garage - Afro Garage - 1993, FLAC (tracks+.cue), lossless

(Free Improvisation, Unit Records) Afro Garage - Afro Garage - 1993, FLAC (tracks+.cue), lossless
Треклист:
Afro Garage / Afro Garage
Жанр: Free Improvisation, Unit Records
Страна-производитель диска: Switzerland
Год издания: 1993
Издатель (лейбл): Unit Records
Номер по каталогу: UTR 4052
Аудиокодек: FLAC (*.flac)
Тип рипа: tracks+.cue
Битрейт аудио: lossless
Продолжительность: 39:47
Источник (релизер): Max Monteiro
Наличие сканов в содержимом раздачи: нет
Треклист:
01. Pannes dans le grand générateur à Port-Saïd. Pooh-Bah au travail ? 3:07
02. Accompaniment for an Absent Mandinke Jali 2:53
03. Die 2’5’’ bis Tagesanbruch. Blick von Rev. Su’s Haus hinunter auf Bafut 2:05
04. Douala Walk 3:12
05. Attentat à l’opéra de Tombouctou – Facts and Rumours 6:53
06. Pequo’s Song, According to the Description Given by Herman Melville 5:19
07. Dakar Docks in Floodlight – An Arrival 3:28
08. Malaria: Endless Night in a Five-Star Hotel 4:33
09. A Complete Picture of the Valley of the Umzimkulu, with Railway 4:50
10. Mystic Muezzin 3:27
This is all freely improvised music without any cuts or overdubs.
 
Лог создания рипа
Exact Audio Copy V1.0 beta 3 from 29. August 2011
EAC extraction logfile from 8. May 2013, 21:16
Afro Garage / Afro Garage
Used drive : SlimtypeeNAU508 5 Adapter: 1 ID: 0
Read mode : Secure
Utilize accurate stream : Yes
Defeat audio cache : Yes
Make use of C2 pointers : No
Read offset correction : 6
Overread into Lead-In and Lead-Out : No
Fill up missing offset samples with silence : Yes
Delete leading and trailing silent blocks : No
Null samples used in CRC calculations : Yes
Used interface : Native Win32 interface for Win NT & 2000
Gap handling : Appended to previous track
Used output format : User Defined Encoder
Selected bitrate : 768 kBit/s
Quality : High
Add ID3 tag : No
Command line compressor : C:\Program Files (x86)\Exact Audio Copy\Flac\flac.exe
Additional command line options : -8 -V -T "ARTIST=%artist%" -T "TITLE=%title%" -T "ALBUM=%albumtitle%" -T "DATE=%year%" -T "TRACKNUMBER=%tracknr%" -T "GENRE=%genre%" -T "PERFORMER=%albuminterpret%" -T "COMPOSER=%composer%" %haslyrics%--tag-from-file=LYRICS="%lyricsfile%"%haslyrics% -T "ALBUMARTIST=%albumartist%" -T "DISCNUMBER=%cdnumber%" -T "TOTALDISCS=%totalcds%" -T "TOTALTRACKS=%numtracks%" -T "COMMENT=%comment%" %source% -o %dest%
TOC of the extracted CD
Track | Start | Length | Start sector | End sector
---------------------------------------------------------
1 | 0:00.00 | 3:06.42 | 0 | 13991
2 | 3:06.42 | 2:52.63 | 13992 | 26954
3 | 5:59.30 | 2:05.27 | 26955 | 36356
4 | 8:04.57 | 3:12.33 | 36357 | 50789
5 | 11:17.15 | 6:53.27 | 50790 | 81791
6 | 18:10.42 | 5:18.38 | 81792 | 105679
7 | 23:29.05 | 3:28.37 | 105680 | 121316
8 | 26:57.42 | 4:32.40 | 121317 | 141756
9 | 31:30.07 | 4:49.65 | 141757 | 163496
10 | 36:19.72 | 3:27.13 | 163497 | 179034
Track 1
Filename C:\EAC rips\01 - Pannes dans le grand générateur à Port-Saïd. Pooh-Bah au travail _.wav
Pre-gap length 0:00:02.00
Peak level 88.8 %
Extraction speed 0.8 X
Track quality 99.9 %
Test CRC 3BB2E551
Copy CRC 3BB2E551
Accurately ripped (confidence 1) [EC69B31D] (AR v1)
Copy OK
Track 2
Filename C:\EAC rips\02 - Accompaniment for an Absent Mandinke Jali.wav
Pre-gap length 0:00:01.27
Peak level 76.3 %
Extraction speed 1.1 X
Track quality 100.0 %
Test CRC 7138EC31
Copy CRC 7138EC31
Accurately ripped (confidence 1) [DB308293] (AR v1)
Copy OK
Track 3
Filename C:\EAC rips\03 - Die 2'5'' bis Tagesanbruch. Blick von Rev. Su's Haus hinunter auf Bafut.wav
Pre-gap length 0:00:04.30
Peak level 39.8 %
Extraction speed 1.1 X
Track quality 100.0 %
Test CRC BB594E83
Copy CRC BB594E83
Accurately ripped (confidence 1) [75040787] (AR v1)
Copy OK
Track 4
Filename C:\EAC rips\04 - Douala Walk.wav
Peak level 75.7 %
Extraction speed 1.2 X
Track quality 100.0 %
Test CRC EF2F621A
Copy CRC EF2F621A
Accurately ripped (confidence 1) [2FC4ABB3] (AR v1)
Copy OK
Track 5
Filename C:\EAC rips\05 - Attentat à l'opéra de Tombouctou - Facts and Rumours.wav
Pre-gap length 0:00:02.45
Peak level 87.8 %
Extraction speed 1.5 X
Track quality 100.0 %
Test CRC 43C74F29
Copy CRC 43C74F29
Accurately ripped (confidence 1) [CF22A99E] (AR v1)
Copy OK
Track 6
Filename C:\EAC rips\06 - Pequo's Song, According to the Description Given by Herman Melville.wav
Pre-gap length 0:00:03.32
Peak level 78.8 %
Extraction speed 1.6 X
Track quality 100.0 %
Test CRC FD26DCA9
Copy CRC FD26DCA9
Accurately ripped (confidence 1) [A4CF807D] (AR v1)
Copy OK
Track 7
Filename C:\EAC rips\07 - Dakar Docks in Floodlight - An Arrival.wav
Pre-gap length 0:00:01.00
Peak level 84.3 %
Extraction speed 1.4 X
Track quality 99.9 %
Test CRC B9BA0197
Copy CRC B9BA0197
Accurately ripped (confidence 1) [4504439B] (AR v1)
Copy OK
Track 8
Filename C:\EAC rips\08 - Malaria - Endless Night in a Five-Star Hotel.wav
Pre-gap length 0:00:03.02
Peak level 71.0 %
Extraction speed 1.7 X
Track quality 100.0 %
Test CRC BE7B2B6C
Copy CRC BE7B2B6C
Accurately ripped (confidence 1) [3B834EAC] (AR v1)
Copy OK
Track 9
Filename C:\EAC rips\09 - A Complet Picture of the Valley of the Umzimkulu, with Railway.wav
Pre-gap length 0:00:00.65
Peak level 79.5 %
Extraction speed 1.8 X
Track quality 100.0 %
Test CRC 906EF2FD
Copy CRC 906EF2FD
Accurately ripped (confidence 1) [0B491980] (AR v1)
Copy OK
Track 10
Filename C:\EAC rips\10 - Mystic Muezzin.wav
Pre-gap length 0:00:01.55
Peak level 80.3 %
Extraction speed 1.6 X
Track quality 99.9 %
Test CRC BC418DBE
Copy CRC BC418DBE
Accurately ripped (confidence 1) [C1DE3E00] (AR v1)
Copy OK
All tracks accurately ripped
No errors occurred
End of status report
---- CUETools DB Plugin V2.1.4
[CTDB TOCID: 31vSr.JHL8fBAyA82PiLgakaVOg-] disk not present in database
Submit result: 31vSr.JHL8fBAyA82PiLgakaVOg- has been uploaded
==== Log checksum 123C5CD171193AB477B65888B5628FE411A5AF768F2605EC623CF8BC7E109DE1 ====
 
Содержание индексной карты (.CUE)
REM GENRE Jazz
REM DATE 1993
REM DISCID 8909530A
REM COMMENT "ExactAudioCopy v1.0b3"
PERFORMER "Afro Garage"
TITLE "Afro Garage"
FILE "01 - Pannes dans le grand générateur à Port-Saïd. Pooh-Bah au travail _.wav" WAVE
TRACK 01 AUDIO
TITLE "Pannes dans le grand générateur à Port-Saïd. Pooh-Bah au travail ?"
PERFORMER "Afro Garage"
INDEX 01 00:00:00
TRACK 02 AUDIO
TITLE "Accompaniment for an Absent Mandinke Jali"
PERFORMER "Afro Garage"
INDEX 00 03:05:15
FILE "02 - Accompaniment for an Absent Mandinke Jali.wav" WAVE
INDEX 01 00:00:00
TRACK 03 AUDIO
TITLE "Die 2'5' bis Tagesanbruch. Blick von Rev. Su's Haus hinunter auf Bafut"
PERFORMER "Afro Garage"
INDEX 00 02:48:33
FILE "03 - Die 2'5'' bis Tagesanbruch. Blick von Rev. Su's Haus hinunter auf Bafut.wav" WAVE
INDEX 01 00:00:00
FILE "04 - Douala Walk.wav" WAVE
TRACK 04 AUDIO
TITLE "Douala Walk"
PERFORMER "Afro Garage"
INDEX 01 00:00:00
TRACK 05 AUDIO
TITLE "Attentat à l'opéra de Tombouctou - Facts and Rumours"
PERFORMER "Afro Garage"
INDEX 00 03:09:63
FILE "05 - Attentat à l'opéra de Tombouctou - Facts and Rumours.wav" WAVE
INDEX 01 00:00:00
TRACK 06 AUDIO
TITLE "Pequo's Song, According to the Description Given by Herman Melville"
PERFORMER "Afro Garage"
INDEX 00 06:49:70
FILE "06 - Pequo's Song, According to the Description Given by Herman Melville.wav" WAVE
INDEX 01 00:00:00
TRACK 07 AUDIO
TITLE "Dakar Docks in Floodlight - An Arrival"
PERFORMER "Afro Garage"
INDEX 00 05:17:38
FILE "07 - Dakar Docks in Floodlight - An Arrival.wav" WAVE
INDEX 01 00:00:00
TRACK 08 AUDIO
TITLE "Malaria: Endless Night in a Five-Star Hotel"
PERFORMER "Afro Garage"
INDEX 00 03:25:35
FILE "08 - Malaria - Endless Night in a Five-Star Hotel.wav" WAVE
INDEX 01 00:00:00
TRACK 09 AUDIO
TITLE "A Complete Picture of the Valley of the Umzimkulu, with Railway"
PERFORMER "Afro Garage"
INDEX 00 04:31:50
FILE "09 - A Complete Picture of the Valley of the Umzimkulu, with Railway.wav" WAVE
INDEX 01 00:00:00
TRACK 10 AUDIO
TITLE "Mystic Muezzin"
PERFORMER "Afro Garage"
INDEX 00 04:48:10
FILE "10 - Mystic Muezzin.wav" WAVE
INDEX 01 00:00:00
Доп. информация: Recorded on February 7th 1991 at Rapidstudio Zurich.
 
Состав
Christoph Baumann – Piano, sometimes prepared, Percussion
Jacques Siron – Bass, Voice, Percussion
Dieter Ulrich – Drums, Bugles, Voice
Any questions -> support@pro-jazz.com. По всем вопросам пишите -> support@pro-jazz.com
13:04
147
Нет комментариев. Ваш будет первым!