Вы используете незарегистрированную версию компонента "Вкладки"!

Поиск

(Free Improvisation, Tzadik) Derek Bailey - Standards - 2007, FLAC (image+.cue), lossless

(Free Improvisation, Tzadik) Derek Bailey - Standards - 2007, FLAC (image+.cue), lossless
Треклист:
Derek Bailey - Standards
Жанр: Free Improvisation, Tzadik
Год выпуска диска: 2007
Производитель диска: USA (Tzadik)
Аудио кодек: FLAC
Тип рипа: image+.cue
Битрейт аудио: lossless
Продолжительность: 53.04
Трэклист:
1. Nothing New
2. Frankly My Dear I Don't Give a Damn
3. When Your Liver has Gone
4. Please Send Me Sweet Chariot
5. Don't Talk About Me
6. Pentup Serenade
7. Head
Доп. информация: Derek Bailey - Solo Acoustic Guitar
 
eac log
Exact Audio Copy V0.99 prebeta 4 from 23. January 2008
Отчёт EAC об извлечении, выполненном 23. февраля 2009, 23:02
Derek Bailey / Standards
Дисковод: Optiarc DVD RW AD-7170A Adapter: 0 ID: 1
Режим чтения : Достоверность
Использование точного потока : Да
Отключение кэша аудио : Да
Использование указателей C2 : Нет
Коррекция смещения при чтении : 48
Способность читать области Lead-in и Lead-out : Нет
Заполнение пропущенных сэмплов тишиной : Да
Удаление блоков с тишиной в начале и конце : Нет
При вычислениях CRC использовались нулевые сэмплы : Да
Интерфейс : Установленный внешний ASPI-интерфейс
Выходной формат : Пользовательский кодировщик
Выбранный битрейт : 768 kBit/s
Качество : Высокий
Добавление ID3-тэга : Нет
Утилита сжатия : C:\Program Files (x86)\Exact Audio Copy\FLAC\FLAC.EXE
Дополнительные параметры : -6 -V -T "ARTIST=%a" -T "TITLE=%t" -T "ALBUM=%g" -T "DATE=%y" -T "TRACKNUMBER=%n" -T "GENRE=%m" -T "COMMENT=%e" %s -o %d
TOC извлечённого CD
Трек | Старт | Длительность | Начальный сектор | Конечный сектор
---------------------------------------------------------------------
1 | 0:00.00 | 8:29.32 | 0 | 38206
2 | 8:29.32 | 9:39.55 | 38207 | 81686
3 | 18:09.12 | 7:37.01 | 81687 | 115962
4 | 25:46.13 | 11:02.17 | 115963 | 165629
5 | 36:48.30 | 4:25.70 | 165630 | 185574
6 | 41:14.25 | 6:41.45 | 185575 | 215694
7 | 47:55.70 | 5:08.16 | 215695 | 238810
Характеристики диапазона извлечения и сообщения об ошибках
Выбранный диапазон
Имя файла C:\Users\Роман\Documents\Derek Bailey - Standards.wav
Пиковый уровень 97.7 %
Качество диапазона 99.9 %
CRC копии B2830977
Копирование... OK
Ошибок не произошло
AccurateRip: сводка
Трек 1 нет в базе данных
Трек 2 нет в базе данных
Трек 3 нет в базе данных
Трек 4 нет в базе данных
Трек 5 нет в базе данных
Трек 6 нет в базе данных
Трек 7 нет в базе данных
Ни одного трека нет в базе AccurateRip
Конец отчёта
Any questions -> support@pro-jazz.com. По всем вопросам пишите -> support@pro-jazz.com
08:29
148
Нет комментариев. Ваш будет первым!