Вы используете незарегистрированную версию компонента "Вкладки"!

Поиск

(Avant-Garde, Modern Creative, Ambient, Noise, Rune Grammofon) Tore Elgaroy - The Sound Of The Sun - 2001, FLAC (image+.cue), lossless

(Avant-Garde, Modern Creative, Ambient, Noise, Rune Grammofon) Tore Elgaroy - The Sound Of The Sun - 2001, FLAC (image+.cue), lossless
Треклист:
Tore Elgaroy - The Sound Of The Sun
Жанр: Avant Garde, Modern Creative, Ambient, Noise, Rune Grammofon
Год выпуска диска: 2001
Производитель диска: Norway (Rune Grammofon, RCD2017)
Аудио кодек: FLAC
Тип рипа: image+.cue
Битрейт аудио: lossless
Продолжительность: 52.17
Трэклист:
1. suntone beams
2. dim mask
3. spooky mind
4. love to the destroyer
5. gitaroman
6. bølgerytter
7. tonesykkel
8. jellybrain
9. sunsound
10. the time and the sorrow
11. scarlet dreams
12. skyggelegger
13. me and the tears
14. shockhand
15. microspace
Доп. информация: Tore Elgaroy - electric guitars
 
eac log
Exact Audio Copy V0.99 prebeta 4 from 23. January 2008
Отчёт EAC об извлечении, выполненном 23. февраля 2009, 23:19
Tore Elgarшy / The Sound of the Sun
Дисковод: Optiarc DVD RW AD-7170A Adapter: 0 ID: 1
Режим чтения : Достоверность
Использование точного потока : Да
Отключение кэша аудио : Да
Использование указателей C2 : Нет
Коррекция смещения при чтении : 48
Способность читать области Lead-in и Lead-out : Нет
Заполнение пропущенных сэмплов тишиной : Да
Удаление блоков с тишиной в начале и конце : Нет
При вычислениях CRC использовались нулевые сэмплы : Да
Интерфейс : Установленный внешний ASPI-интерфейс
Выходной формат : Пользовательский кодировщик
Выбранный битрейт : 768 kBit/s
Качество : Высокий
Добавление ID3-тэга : Нет
Утилита сжатия : C:\Program Files (x86)\Exact Audio Copy\FLAC\FLAC.EXE
Дополнительные параметры : -6 -V -T "ARTIST=%a" -T "TITLE=%t" -T "ALBUM=%g" -T "DATE=%y" -T "TRACKNUMBER=%n" -T "GENRE=%m" -T "COMMENT=%e" %s -o %d
TOC извлечённого CD
Трек | Старт | Длительность | Начальный сектор | Конечный сектор
---------------------------------------------------------------------
1 | 0:00.00 | 1:05.30 | 0 | 4904
2 | 1:05.30 | 3:43.30 | 4905 | 21659
3 | 4:48.60 | 3:35.30 | 21660 | 37814
4 | 8:24.15 | 0:25.10 | 37815 | 39699
5 | 8:49.25 | 3:51.57 | 39700 | 57081
6 | 12:41.07 | 5:23.68 | 57082 | 81374
7 | 18:05.00 | 6:17.30 | 81375 | 109679
8 | 24:22.30 | 2:02.50 | 109680 | 118879
9 | 26:25.05 | 5:26.32 | 118880 | 143361
10 | 31:51.37 | 0:53.33 | 143362 | 147369
11 | 32:44.70 | 5:28.07 | 147370 | 171976
12 | 38:13.02 | 3:40.05 | 171977 | 188481
13 | 41:53.07 | 0:48.35 | 188482 | 192116
14 | 42:41.42 | 4:23.15 | 192117 | 211856
15 | 47:04.57 | 5:13.13 | 211857 | 235344
Характеристики диапазона извлечения и сообщения об ошибках
Выбранный диапазон
Имя файла C:\Users\Роман\Documents\Tore Elgarшy - The Sound of the Sun.wav
Пиковый уровень 100.0 %
Качество диапазона 100.0 %
CRC копии 0AD9E0BD
Копирование... OK
Ошибок не произошло
AccurateRip: сводка
Трек 1 нет в базе данных
Трек 2 нет в базе данных
Трек 3 нет в базе данных
Трек 4 нет в базе данных
Трек 5 нет в базе данных
Трек 6 нет в базе данных
Трек 7 нет в базе данных
Трек 8 нет в базе данных
Трек 9 нет в базе данных
Трек 10 нет в базе данных
Трек 11 нет в базе данных
Трек 12 нет в базе данных
Трек 13 нет в базе данных
Трек 14 нет в базе данных
Трек 15 нет в базе данных
Ни одного трека нет в базе AccurateRip
Конец отчёта
Any questions -> support@pro-jazz.com. По всем вопросам пишите -> support@pro-jazz.com
08:29
117
Нет комментариев. Ваш будет первым!