Вы используете незарегистрированную версию компонента "Вкладки"!

Поиск

(Free Improvisation) Triage (Dave Rempis, Jason Ajemian, Tim Daisy) - American Mythology - 2005, FLAC (image+.cue), lossless

(Free Improvisation) Triage (Dave Rempis, Jason Ajemian, Tim Daisy) - American Mythology - 2005, FLAC (image+.cue), lossless
Треклист:
Triage / American Mythology
Жанр: Free Improvisation
Страна-производитель диска: US
Год издания диска: 2005
Издатель (лейбл): Okka Disk
Номер по каталогу: OD12052
Аудиокодек: FLAC (*.flac)
Тип рипа: image+.cue
Битрейт аудио: lossless
Продолжительность: 63:59
Источник (релизер): CD
Наличие сканов в содержимом раздачи: нет
Треклист:
1 2187 4:28
2 Rust Belt 9:38
3 Crystal Set 5:32
4 White Flies 4:44
5 Sidelights 10:00
6 Rong Tones 12:07
7 In The Afternoon 4:18
8 Bus Stop Break-Up 12:30
 
Лог создания рипа
Exact Audio Copy V1.0 beta 2 from 29. April 2011
EAC extraction logfile from 6. January 2012, 20:44
Triage / American Mythology
Used drive : Optiarc DVD RW AD-7170A Adapter: 0 ID: 0
Read mode : Secure
Utilize accurate stream : Yes
Defeat audio cache : Yes
Make use of C2 pointers : No
Read offset correction : 48
Overread into Lead-In and Lead-Out : No
Fill up missing offset samples with silence : Yes
Delete leading and trailing silent blocks : No
Null samples used in CRC calculations : Yes
Used interface : Native Win32 interface for Win NT & 2000
Used output format : User Defined Encoder
Selected bitrate : 320 kBit/s
Quality : High
Add ID3 tag : No
Command line compressor : C:\Program Files\Exact Audio Copy\Flac\flac.exe
Additional command line options : -V -8 -T "Date=%year%" -T "Genre=%genre%" %source%
TOC of the extracted CD
Track | Start | Length | Start sector | End sector
---------------------------------------------------------
1 | 0:00.00 | 4:30.23 | 0 | 20272
2 | 4:30.23 | 9:44.25 | 20273 | 64097
3 | 14:14.48 | 5:35.39 | 64098 | 89261
4 | 19:50.12 | 4:48.56 | 89262 | 110917
5 | 24:38.68 | 10:04.05 | 110918 | 156222
6 | 34:42.73 | 12:10.55 | 156223 | 211027
7 | 46:53.53 | 4:21.60 | 211028 | 230662
8 | 51:15.38 | 12:43.69 | 230663 | 287956
Range status and errors
Selected range
Filename C:\EAC\Downloads\Triage - American Mythology.wav
Peak level 100.0 %
Extraction speed 5.4 X
Range quality 100.0 %
Test CRC 0001D345
Copy CRC 0001D345
Copy OK
No errors occurred
AccurateRip summary
Track 1 accurately ripped (confidence 3) [7014AA3B] (AR v1)
Track 2 accurately ripped (confidence 3) [425574B2] (AR v1)
Track 3 accurately ripped (confidence 3) [BA2446DF] (AR v1)
Track 4 accurately ripped (confidence 3) [65E52354] (AR v1)
Track 5 accurately ripped (confidence 3) [91D5A954] (AR v1)
Track 6 accurately ripped (confidence 3) [254098DA] (AR v1)
Track 7 accurately ripped (confidence 3) [440567FF] (AR v1)
Track 8 accurately ripped (confidence 3) [21C044D5] (AR v1)
All tracks accurately ripped
End of status report
==== Log checksum F867C20E173C237538CF92D3DC6851B25055E68853256D8C7C87D266EFF38648 ====
 
Содержание индексной карты (.CUE)
REM GENRE Jazz
REM DATE 2004
REM DISCID 690EFF08
REM COMMENT "ExactAudioCopy v1.0b2"
PERFORMER "Triage"
TITLE "American Mythology"
FILE "Triage - American Mythology.flac" WAVE
TRACK 01 AUDIO
TITLE "2187"
PERFORMER "Triage"
INDEX 01 00:00:00
TRACK 02 AUDIO
TITLE "Rust Belt"
PERFORMER "Triage"
INDEX 01 04:30:23
TRACK 03 AUDIO
TITLE "Crystal Set"
PERFORMER "Triage"
INDEX 01 14:14:48
TRACK 04 AUDIO
TITLE "White Flies"
PERFORMER "Triage"
INDEX 01 19:50:12
TRACK 05 AUDIO
TITLE "Sidelights"
PERFORMER "Triage"
INDEX 01 24:38:68
TRACK 06 AUDIO
TITLE "Rong Tones"
PERFORMER "Triage"
INDEX 01 34:42:73
TRACK 07 AUDIO
TITLE "In The Afternoon"
PERFORMER "Triage"
INDEX 01 46:53:53
TRACK 08 AUDIO
TITLE "Bus Stop Break Up"
PERFORMER "Triage"
INDEX 01 51:15:38
Доп. информация: Recorded on 5/6 January 2004 at 3030 Chicago
 
Состав
Alto Saxophone, Tenor Saxophone – Dave Rempis
Bass – Jason Ajemian
Drums – Tim Daisy
Any questions -> support@pro-jazz.com. По всем вопросам пишите -> support@pro-jazz.com
20:49
170
Нет комментариев. Ваш будет первым!