Вы используете незарегистрированную версию компонента "Вкладки"!

Поиск

(Avant-Garde Jazz, Free Improvisation) Rashied Ali & Arthur Rhames - The Dynamic Duo {Remember Trane And Bird, 1981, 2CD} - 2004, FLAC (tracks+.cue), lossless

(Avant-Garde Jazz, Free Improvisation) Rashied Ali & Arthur Rhames - The Dynamic Duo {Remember Trane And Bird, 1981, 2CD} - 2004, FLAC (tracks+.cue), lossless
Треклист:
•Rashied Ali & Arthur Rhames - The Dynamic Duo {Remember Trane And Bird, 1981, 2CD}•
Жанр: Avant-Garde Jazz, Free Improvisation
Страна-производитель диска: U.S.A.
Год издания диска: 2004
Издатель (лейбл): Ayler Records
Номер по каталогу: aylCD - 050/051
Аудиокодек: FLAC (*.flac)
Тип рипа: tracks+.cue
Битрейт аудио: lossless
Продолжительность: 02:04:31
Источник (релизер): Рипы с дисков.
Наличие сканов в содержимом раздачи: да
Personnel:
Rashied Ali - dr, vo
Arthur Rhames - ts, p
 
CD1 - 01:12:14
Треклист:

01. Introduction By Rashied Ali
02. Mr. PC
03. I Want To Talk About You
04. Giant Steps/Impressions/Tune Up
05. Extra, Extra - Read All About It (1)
 
Лог создания рипа
Exact Audio Copy V1.0 beta 3 from 29. August 2011
Отчёт EAC об извлечении, выполненном 7. января 2012, 18:14
Rashied Ali & Arthur Rhames / The Dynamic Duo (CD1)
Дисковод: Optiarc DVD RW AD-5200A Adapter: 0 ID: 1
Режим чтения : Достоверность
Использование точного потока : Да
Отключение кэша аудио : Да
Использование указателей C2 : Нет
Коррекция смещения при чтении : 48
Способность читать области Lead-in и Lead-out : Нет
Заполнение пропущенных сэмплов тишиной : Да
Удаление блоков с тишиной в начале и конце : Нет
При вычислениях CRC использовались нулевые сэмплы : Да
Интерфейс : Установленный внешний ASPI-интерфейс
Обработка зазоров : Добавлено к предыдущему треку
Выходной формат : Пользовательский кодировщик
Выбранный битрейт : 128 kBit/s
Качество : Высокий
Добавление ID3-тега : Нет
Утилита сжатия : C:\Program Files\Exact Audio Copy\Flac\flac.exe
Дополнительные параметры : -V -8 -T "Genre=%genre%" -T "Artist=%artist%" -T "Title=%title%" -T "Album=%albumtitle%" -T "Date=%year%" -T "Tracknumber=%tracknr%" -T "Comment=%comment%" %source%
TOC извлечённого CD
Трек | Старт | Длительность | Начальный сектор | Конечный сектор
---------------------------------------------------------------------
1 | 0:00.00 | 16:49.52 | 0 | 75726
2 | 16:49.52 | 23:19.27 | 75727 | 180678
3 | 40:09.04 | 5:59.50 | 180679 | 207653
4 | 46:08.54 | 16:06.31 | 207654 | 280134
5 | 62:15.10 | 9:59.24 | 280135 | 325083
Трек 1
Имя файла F:\2004.Rashied Ali & Arthur Rhames - The Dynamic Duo (2CD)\CD1\01. Introduction By Rashied Ali.wav
Длина предзазора 0:00:02.00
Пиковый уровень 61.7 %
Скорость извлечения 3.0 X
Качество трека 100.0 %
CRC теста 10A5E13F
CRC копии 10A5E13F
Точность не определена (достоверность 1) [122A280B], AccurateRip вернул [A7546702] (AR v2)
Копирование... OK
Трек 2
Имя файла F:\2004.Rashied Ali & Arthur Rhames - The Dynamic Duo (2CD)\CD1\02. Mr. PC.wav
Длина предзазора 0:00:02.00
Пиковый уровень 94.8 %
Скорость извлечения 3.6 X
Качество трека 99.9 %
CRC теста 4A960A6B
CRC копии 4A960A6B
Точность не определена (достоверность 1) [7F0DBCD6], AccurateRip вернул [AC08E1CE] (AR v2)
Копирование... OK
Трек 3
Имя файла F:\2004.Rashied Ali & Arthur Rhames - The Dynamic Duo (2CD)\CD1\03. I Want To Talk About You.wav
Пиковый уровень 92.7 %
Скорость извлечения 3.4 X
Качество трека 100.0 %
CRC теста DC5F17A6
CRC копии DC5F17A6
Точность не определена (достоверность 1) [755EB46A], AccurateRip вернул [021AB6EA] (AR v2)
Копирование... OK
Трек 4
Имя файла F:\2004.Rashied Ali & Arthur Rhames - The Dynamic Duo (2CD)\CD1\04. Giant Steps,Impressions,Tune Up.wav
Пиковый уровень 94.0 %
Скорость извлечения 3.7 X
Качество трека 99.9 %
CRC теста EFFCEA4C
CRC копии EFFCEA4C
Точность не определена (достоверность 1) [42365DE9], AccurateRip вернул [7F983442] (AR v2)
Копирование... OK
Трек 5
Имя файла F:\2004.Rashied Ali & Arthur Rhames - The Dynamic Duo (2CD)\CD1\05. Extra, Extra - Read All About It (1).wav
Пиковый уровень 93.9 %
Скорость извлечения 3.8 X
Качество трека 100.0 %
CRC теста E764F46A
CRC копии E764F46A
Точность не определена (достоверность 1) [B236CE46], AccurateRip вернул [8E1966B7] (AR v2)
Копирование... OK
Ни один трек не прошёл проверки на точность
В вашей базе может быть иной вариант штамповки диска
Ошибок не произошло
Конец отчёта
==== Контрольная сумма отчёта 402ABCB830BF20DA5F3F7A891FB2ED5417DB189618E39C0A4874838867EA5DA6 ====
 
Содержание индексной карты (.CUE)
REM DATE 2004
REM DISCID 3110EE05
REM COMMENT "ExactAudioCopy v1.0b3"
PERFORMER "Rashied Ali & Arthur Rhames"
TITLE "The Dynamic Duo (CD1)"
FILE "01. Introduction By Rashied Ali.wav" WAVE
TRACK 01 AUDIO
TITLE "Introduction By Rashied Ali"
PERFORMER "Rashied Ali & Arthur Rhames"
FLAGS DCP
INDEX 01 00:00:00
TRACK 02 AUDIO
TITLE "Mr. PC"
PERFORMER "Rashied Ali & Arthur Rhames"
FLAGS DCP
INDEX 00 16:47:52
FILE "02. Mr. PC.wav" WAVE
INDEX 01 00:00:00
FILE "03. I Want To Talk About You.wav" WAVE
TRACK 03 AUDIO
TITLE "I Want To Talk About You"
PERFORMER "Rashied Ali & Arthur Rhames"
FLAGS DCP
INDEX 01 00:00:00
FILE "04. Giant Steps,Impressions,Tune Up.wav" WAVE
TRACK 04 AUDIO
TITLE "Giant Steps/Impressions/Tune Up"
PERFORMER "Rashied Ali & Arthur Rhames"
FLAGS DCP
INDEX 01 00:00:00
FILE "05. Extra, Extra - Read All About It (1).wav" WAVE
TRACK 05 AUDIO
TITLE "Extra, Extra - Read All About It (1)"
PERFORMER "Rashied Ali & Arthur Rhames"
FLAGS DCP
INDEX 01 00:00:00
 
CD2 - 00:52:17
Треклист:

01. Giant Steps / Lazy Bird / Moments Notice
02. Extra, Extra - Read All About It (2)
03. Acknowledgement
04. Resolution
05. Pursuance
06. Homage Charlie Parker - Medley
07. The Work Of The Master
 
Лог создания рипа
Exact Audio Copy V1.0 beta 3 from 29. August 2011
Отчёт EAC об извлечении, выполненном 7. января 2012, 19:10
Rashied Ali & Arthur Rhames / The Dynamic Duo (Remember Trane And Bird, CD2)
Дисковод: Optiarc DVD RW AD-5200A Adapter: 0 ID: 1
Режим чтения : Достоверность
Использование точного потока : Да
Отключение кэша аудио : Да
Использование указателей C2 : Нет
Коррекция смещения при чтении : 48
Способность читать области Lead-in и Lead-out : Нет
Заполнение пропущенных сэмплов тишиной : Да
Удаление блоков с тишиной в начале и конце : Нет
При вычислениях CRC использовались нулевые сэмплы : Да
Интерфейс : Установленный внешний ASPI-интерфейс
Обработка зазоров : Добавлено к предыдущему треку
Выходной формат : Пользовательский кодировщик
Выбранный битрейт : 128 kBit/s
Качество : Высокий
Добавление ID3-тега : Нет
Утилита сжатия : C:\Program Files\Exact Audio Copy\Flac\flac.exe
Дополнительные параметры : -V -8 -T "Genre=%genre%" -T "Artist=%artist%" -T "Title=%title%" -T "Album=%albumtitle%" -T "Date=%year%" -T "Tracknumber=%tracknr%" -T "Comment=%comment%" %source%
TOC извлечённого CD
Трек | Старт | Длительность | Начальный сектор | Конечный сектор
---------------------------------------------------------------------
1 | 0:00.00 | 7:16.72 | 0 | 32771
2 | 7:16.72 | 7:51.06 | 32772 | 68102
3 | 15:08.03 | 2:47.48 | 68103 | 80675
4 | 17:55.51 | 2:41.04 | 80676 | 92754
5 | 20:36.55 | 6:28.73 | 92755 | 121927
6 | 27:05.53 | 10:11.52 | 121928 | 167804
7 | 37:17.30 | 14:59.59 | 167805 | 235288
Трек 1
Имя файла F:\2004.Rashied Ali & Arthur Rhames - The Dynamic Duo (2CD)\CD2\01. Giant Steps , Lazy Bird , Moments Notice.wav
Длина предзазора 0:00:02.00
Пиковый уровень 87.7 %
Скорость извлечения 2.5 X
Качество трека 100.0 %
CRC теста DDCB2401
CRC копии DDCB2401
Точность не определена (достоверность 1) [2C742A28], AccurateRip вернул [7A9BE1EF] (AR v2)
Копирование... OK
Трек 2
Имя файла F:\2004.Rashied Ali & Arthur Rhames - The Dynamic Duo (2CD)\CD2\02. Extra, Extra - Read All About It (2).wav
Пиковый уровень 94.2 %
Скорость извлечения 2.8 X
Качество трека 99.9 %
CRC теста 8418EE62
CRC копии 8418EE62
Точность не определена (достоверность 1) [4261B845], AccurateRip вернул [E5D8FAF6] (AR v2)
Копирование... OK
Трек 3
Имя файла F:\2004.Rashied Ali & Arthur Rhames - The Dynamic Duo (2CD)\CD2\03. Acknowledgement.wav
Пиковый уровень 78.5 %
Скорость извлечения 2.3 X
Качество трека 99.9 %
CRC теста 18F4A7A9
CRC копии 18F4A7A9
Точность не определена (достоверность 1) [052CA9A1], AccurateRip вернул [8428D071] (AR v2)
Копирование... OK
Трек 4
Имя файла F:\2004.Rashied Ali & Arthur Rhames - The Dynamic Duo (2CD)\CD2\04. Resolution.wav
Пиковый уровень 94.8 %
Скорость извлечения 2.9 X
Качество трека 100.0 %
CRC теста 5B7F58B2
CRC копии 5B7F58B2
Точность не определена (достоверность 1) [F983891B], AccurateRip вернул [D4D4379F] (AR v2)
Копирование... OK
Трек 5
Имя файла F:\2004.Rashied Ali & Arthur Rhames - The Dynamic Duo (2CD)\CD2\05. Pursuance.wav
Пиковый уровень 93.9 %
Скорость извлечения 3.4 X
Качество трека 100.0 %
CRC теста 27771EF4
CRC копии 27771EF4
Точность не определена (достоверность 1) [0AD097A7], AccurateRip вернул [DA66025D] (AR v2)
Копирование... OK
Трек 6
Имя файла F:\2004.Rashied Ali & Arthur Rhames - The Dynamic Duo (2CD)\CD2\06. Homage Charlie Parker - Medley.wav
Пиковый уровень 97.4 %
Скорость извлечения 3.7 X
Качество трека 100.0 %
CRC теста B21887C4
CRC копии B21887C4
Точность не определена (достоверность 1) [8FBE6604], AccurateRip вернул [99BFEF4C] (AR v2)
Копирование... OK
Трек 7
Имя файла F:\2004.Rashied Ali & Arthur Rhames - The Dynamic Duo (2CD)\CD2\07. The Work Of The Master.wav
Пиковый уровень 97.5 %
Скорость извлечения 3.8 X
Качество трека 100.0 %
CRC теста 32F8346C
CRC копии 32F8346C
Точность не определена (достоверность 1) [52844B7C], AccurateRip вернул [84AA700F] (AR v2)
Копирование... OK
Ни один трек не прошёл проверки на точность
В вашей базе может быть иной вариант штамповки диска
Ошибок не произошло
Конец отчёта
==== Контрольная сумма отчёта 5A22D31FABA70AC88809BC67D61C5173C3CA3398D9BB79E271174431A6883474 ====
 
Содержание индексной карты (.CUE)
REM GENRE Avantgarde
REM DATE 2004
REM DISCID 580C4107
REM COMMENT "ExactAudioCopy v1.0b3"
PERFORMER "Rashied Ali & Arthur Rhames"
TITLE "The Dynamic Duo (Remember Trane And Bird, CD2)"
FILE "01. Giant Steps , Lazy Bird , Moments Notice.wav" WAVE
TRACK 01 AUDIO
TITLE "Giant Steps / Lazy Bird / Moments Notice"
PERFORMER "Rashied Ali & Arthur Rhames"
FLAGS DCP
INDEX 01 00:00:00
FILE "02. Extra, Extra - Read All About It (2).wav" WAVE
TRACK 02 AUDIO
TITLE "Extra, Extra - Read All About It (2)"
PERFORMER "Rashied Ali & Arthur Rhames"
FLAGS DCP
INDEX 01 00:00:00
FILE "03. Acknowledgement.wav" WAVE
TRACK 03 AUDIO
TITLE "Acknowledgement"
PERFORMER "Rashied Ali & Arthur Rhames"
FLAGS DCP
INDEX 01 00:00:00
FILE "04. Resolution.wav" WAVE
TRACK 04 AUDIO
TITLE "Resolution"
PERFORMER "Rashied Ali & Arthur Rhames"
FLAGS DCP
INDEX 01 00:00:00
FILE "05. Pursuance.wav" WAVE
TRACK 05 AUDIO
TITLE "Pursuance"
PERFORMER "Rashied Ali & Arthur Rhames"
FLAGS DCP
INDEX 01 00:00:00
FILE "06. Homage Charlie Parker - Medley.wav" WAVE
TRACK 06 AUDIO
TITLE "Homage Charlie Parker - Medley"
PERFORMER "Rashied Ali & Arthur Rhames"
FLAGS DCP
INDEX 01 00:00:00
FILE "07. The Work Of The Master.wav" WAVE
TRACK 07 AUDIO
TITLE "The Work Of The Master"
PERFORMER "Rashied Ali & Arthur Rhames"
FLAGS DCP
INDEX 01 00:00:00
Any questions -> support@pro-jazz.com. По всем вопросам пишите -> support@pro-jazz.com
20:49
176
Нет комментариев. Ваш будет первым!