Вы используете незарегистрированную версию компонента "Вкладки"!

Поиск

(Free Improvisation) Tony Bevan / John Edwards / Ashley Wales / Mark Sanders / Orphy Robinson - Bruise With Derek Bailey - 2004, FLAC (tracks), lossless

Треклист:
Tony Bevan / John Edwards / Ashley Wales / Mark Sanders / Orphy Robinson
Bruise With Derek Bailey
Жанр: Free Improvisation
Год выпуска диска: 2004
Производитель диска: foghorn records (FOGCD006)
Источник: вот.сиди (bukethepuke)
Аудио кодек: FLAC
Тип рипа: tracks
Битрейт аудио: lossless
Продолжительность: 1:10:59
Треклист:
1 Search 20:54
2 Locate 16:02
3 Destroy 34:03
Recorded on tuesday, august 17, 2004, 8:30 pm live at the 291 Gallery, Hackney Road, London E2 England by Ashley Wales
Derek Bailey: electric guitar
Tony Bevan: bass saxophones
Orphy Robinson: steel drum, marimbula, percussion, electronics, trumpet
John Edwards: double bass
Ashley Wales: soundscapes & electronics
Mark Sanders: drums & percussion
Dedicated to the memory of my dear friend Derek. "Search, locate and destroy" was Derek's motto.
Tony Bevan
 
Отчёт EAC
Exact Audio Copy V0.99 prebeta 5 from 4. May 2009
EAC extraction logfile from 13. July 2010, 19:16
Derek Bailey / Tony Bevan / Ashley Wales / John Edwards / Orphy Robinson / Bruise with Derek Bailey
Used drive : TSSTcorpDVD+-RW TS-H653A Adapter: 0 ID: 1
Read mode : Secure
Utilize accurate stream : Yes
Defeat audio cache : Yes
Make use of C2 pointers : No
Read offset correction : 6
Overread into Lead-In and Lead-Out : No
Fill up missing offset samples with silence : Yes
Delete leading and trailing silent blocks : No
Null samples used in CRC calculations : Yes
Used interface : Native Win32 interface for Win NT & 2000
Gap handling : Appended to previous track
Used output format : User Defined Encoder
Selected bitrate : 320 kBit/s
Quality : High
Add ID3 tag : No
Command line compressor : C:\Program Files\Exact Audio Copy\Flac\flac.exe
Additional command line options : -V -8 -T "artist=%a" -T "title=%t" -T "album=%g" -T "date=%y" -T "tracknumber=%n" -T "genre=%m" %s
TOC of the extracted CD
Track | Start | Length | Start sector | End sector
---------------------------------------------------------
1 | 0:00.00 | 20:54.22 | 0 | 94071
2 | 20:54.22 | 16:01.60 | 94072 | 166206
3 | 36:56.07 | 34:02.49 | 166207 | 319405
Track 1
Filename F:\Derek Bailey , Tony Bevan , Ashley Wales , John Edwards , Orphy Robinson - 2004 - Bruise with Derek Bailey [FLAC]\01 - Search.wav
Pre-gap length 0:00:02.00
Peak level 97.7 %
Track quality 100.0 %
Test CRC D53D8280
Copy CRC D53D8280
Track not present in AccurateRip database
Copy OK
Track 2
Filename F:\Derek Bailey , Tony Bevan , Ashley Wales , John Edwards , Orphy Robinson - 2004 - Bruise with Derek Bailey [FLAC]\02 - Locate.wav
Pre-gap length 0:00:02.00
Peak level 97.7 %
Track quality 100.0 %
Test CRC 33B4CA80
Copy CRC 33B4CA80
Track not present in AccurateRip database
Copy OK
Track 3
Filename F:\Derek Bailey , Tony Bevan , Ashley Wales , John Edwards , Orphy Robinson - 2004 - Bruise with Derek Bailey [FLAC]\03 - Destroy.wav
Pre-gap length 0:00:02.00
Peak level 97.7 %
Track quality 100.0 %
Test CRC 684E728E
Copy CRC 684E728E
Track not present in AccurateRip database
Copy OK
None of the tracks are present in the AccurateRip database
No errors occurred
End of status report
 
Отчёт Audiocheckera
AUDIOCHECKER v2.0 beta (build 457) - by Dester - opdester@freemail.hu
~~~~~~~~~~~~~~~~~~~~~~~~~~~~~~~~~~
-=== DO NOT EDIT THIS FILE! ===-
Path: ...\bruise with derek bailey 2004
1 -=- 01 - Search.flac -=- CDDA (100%)
2 -=- 02 - Locate.flac -=- CDDA (100%)
3 -=- 03 - Destroy.flac -=- CDDA (100%)
Summary 100,00% CDDA
183431108
Any questions -> support@pro-jazz.com. По всем вопросам пишите -> support@pro-jazz.com
01:13
196
Нет комментариев. Ваш будет первым!