Вы используете незарегистрированную версию компонента "Вкладки"!

Поиск

(Free Improvisation) Derek Bailey - Aida - 1996 (1980), FLAC (tracks), lossless

Треклист:
Derek Bailey - Aida
Жанр: Free Improvisation
Год выпуска диска: 1996 (1980)
Производитель диска: Dexter's Cigar (DEX05)
Источник: вот.сиди (bukethepuke)
Аудио кодек: FLAC
Тип рипа: tracks
Битрейт аудио: lossless
Продолжительность: 40:40
Треклист:
1 Paris 19:36
2 Niigata Snow 6:55
3 An Echo In Another's Mind 14:07
Track 1 recorded at Dunois, Paris on July 4, 1980. Tracks 2 & 3 recorded at the ICA, London on August 3, 1980.
Derek Bailey - guitar
'Dedicated to the memory of Aida Akira 1946-1978'.
 
Отчёт EAC
Exact Audio Copy V0.99 prebeta 5 from 4. May 2009
EAC extraction logfile from 13. July 2010, 19:47
Derek Bailey / Aida
Used drive : TSSTcorpDVD+-RW TS-H653A Adapter: 0 ID: 1
Read mode : Secure
Utilize accurate stream : Yes
Defeat audio cache : Yes
Make use of C2 pointers : No
Read offset correction : 6
Overread into Lead-In and Lead-Out : No
Fill up missing offset samples with silence : Yes
Delete leading and trailing silent blocks : No
Null samples used in CRC calculations : Yes
Used interface : Native Win32 interface for Win NT & 2000
Gap handling : Appended to previous track
Used output format : User Defined Encoder
Selected bitrate : 320 kBit/s
Quality : High
Add ID3 tag : No
Command line compressor : C:\Program Files\Exact Audio Copy\Flac\flac.exe
Additional command line options : -V -8 -T "artist=%a" -T "title=%t" -T "album=%g" -T "date=%y" -T "tracknumber=%n" -T "genre=%m" %s
TOC of the extracted CD
Track | Start | Length | Start sector | End sector
---------------------------------------------------------
1 | 0:00.00 | 19:36.67 | 0 | 88266
2 | 19:36.67 | 6:55.43 | 88267 | 119434
3 | 26:32.35 | 14:07.72 | 119435 | 183031
Track 1
Filename F:\Derek Bailey - 1996 - Aida [FLAC]\01 - Paris.wav
Pre-gap length 0:00:02.00
Peak level 99.6 %
Track quality 100.0 %
Test CRC 0E732A56
Copy CRC 0E732A56
Cannot be verified as accurate (confidence 1) [EC4EC832], AccurateRip returned [F12184D6]
Copy OK
Track 2
Filename F:\Derek Bailey - 1996 - Aida [FLAC]\02 - Niigata snow.wav
Pre-gap length 0:00:04.02
Peak level 100.0 %
Track quality 100.0 %
Test CRC EF920268
Copy CRC EF920268
Cannot be verified as accurate (confidence 1) [9C3D5A83], AccurateRip returned [276E4933]
Copy OK
Track 3
Filename F:\Derek Bailey - 1996 - Aida [FLAC]\03 - An echo in another's mind.wav
Peak level 100.0 %
Track quality 100.0 %
Test CRC 697DCBA6
Copy CRC 697DCBA6
Cannot be verified as accurate (confidence 1) [5650B72B], AccurateRip returned [253B316B]
Copy OK
No tracks could be verified as accurate
You may have a different pressing from the one(s) in the database
No errors occurred
End of status report
 
Отчёт Audiocheckera
AUDIOCHECKER v2.0 beta (build 457) - by Dester - opdester@freemail.hu
~~~~~~~~~~~~~~~~~~~~~~~~~~~~~~~~~~
-=== DO NOT EDIT THIS FILE! ===-
Path: ...\Derek Bailey - 1996 - Aida [FLAC]
1 -=- 01 - Paris.flac -=- CDDA (100%)
2 -=- 02 - Niigata snow.flac -=- CDDA (100%)
3 -=- 03 - An echo in another's mind.flac -=- CDDA (100%)
Summary 100,00% CDDA
26415828
По всем вопросам пишите личное сообщение пользователю M0p94ok.
01:14
194
Нет комментариев. Ваш будет первым!