Вы используете незарегистрированную версию компонента "Вкладки"!

Поиск

(Free Improvisation) Theo Jorgensmann & Oles Brothers - Live in Poznan 2006 - 2006, FLAC (tracks+.cue) lossless

Треклист:
Theo Jorgensmann & Oles Brothers - Live in Poznan 2006
Жанр: Free Improvisation
Страна-производитель диска: Poland
Год издания диска: 2006
Издатель (лейбл): Fenommedia
Номер по каталогу: FM 07-006
Аудио кодек: FLAC (*.flac)
Тип рипа: tracks+.cue
Битрейт аудио: lossless
Продолжительность: 1:13:30
Источник (релизер): собственный рип с оригинального диска.
Наличие сканов в содержимом раздачи: да
Треклист:
01. Per Rata
02. January 5
03. Giuffree
04. Menace
05. Voices of the trees
06. Aesthetic Direction
07. Parbat
08. Byway
 
Лог создания рипа
Exact Audio Copy V0.99 prebeta 5 from 4. May 2009
EAC extraction logfile from 12. January 2011, 18:40
Marcin Oles & Bartlomiej Brat Oles & Theo Jorgensmann / Live in Poznan 2006
Used drive : TSSTcorpCDDVDW SH-S222A Adapter: 1 ID: 0
Read mode : Secure
Utilize accurate stream : Yes
Defeat audio cache : Yes
Make use of C2 pointers : No
Read offset correction : 6
Overread into Lead-In and Lead-Out : No
Fill up missing offset samples with silence : Yes
Delete leading and trailing silent blocks : No
Null samples used in CRC calculations : Yes
Used interface : Installed external ASPI interface
Gap handling : Appended to previous track
Used output format : User Defined Encoder
Selected bitrate : 768 kBit/s
Quality : High
Add ID3 tag : No
Command line compressor : C:\Tool\Compress\FLAC\flac.exe
Additional command line options : -V -8 -T "ARTIST=%a" -T "TITLE=%t" -T "ALBUM=%g" -T "TRACKNUMBER=%n" -T "GENRE=%m" %s
TOC of the extracted CD
Track | Start | Length | Start sector | End sector
---------------------------------------------------------
1 | 0:00.00 | 11:15.71 | 0 | 50695
2 | 11:15.71 | 8:21.11 | 50696 | 88281
3 | 19:37.07 | 9:08.42 | 88282 | 129423
4 | 28:45.49 | 8:49.40 | 129424 | 169138
5 | 37:35.14 | 7:05.13 | 169139 | 201026
6 | 44:40.27 | 9:37.45 | 201027 | 244346
7 | 54:17.72 | 13:37.28 | 244347 | 305649
8 | 67:55.25 | 5:33.47 | 305650 | 330671
Track 1
Filename C:\! RUTRACKER\ru up\Oles Brothers & Theo Jorgensmann - Live In Poznan 2006 (2006) [FLAC]\01 - Per Rata.wav
Pre-gap length 0:00:02.00
Peak level 81.7 %
Track quality 100.0 %
Test CRC EBBD68A3
Copy CRC EBBD68A3
Accurately ripped (confidence 1) [9A20D941]
Copy OK
Track 2
Filename C:\! RUTRACKER\ru up\Oles Brothers & Theo Jorgensmann - Live In Poznan 2006 (2006) [FLAC]\02 - January 5.wav
Peak level 77.2 %
Track quality 100.0 %
Test CRC C1E079DD
Copy CRC C1E079DD
Accurately ripped (confidence 1) [53169DAB]
Copy OK
Track 3
Filename C:\! RUTRACKER\ru up\Oles Brothers & Theo Jorgensmann - Live In Poznan 2006 (2006) [FLAC]\03 - Giuffree.wav
Peak level 69.1 %
Track quality 99.9 %
Test CRC 241B2B1F
Copy CRC 241B2B1F
Accurately ripped (confidence 1) [4911A004]
Copy OK
Track 4
Filename C:\! RUTRACKER\ru up\Oles Brothers & Theo Jorgensmann - Live In Poznan 2006 (2006) [FLAC]\04 - Menace.wav
Peak level 78.7 %
Track quality 100.0 %
Test CRC 747B3C8C
Copy CRC 747B3C8C
Accurately ripped (confidence 1) [965E3954]
Copy OK
Track 5
Filename C:\! RUTRACKER\ru up\Oles Brothers & Theo Jorgensmann - Live In Poznan 2006 (2006) [FLAC]\05 - Voices of the trees.wav
Peak level 75.6 %
Track quality 100.0 %
Test CRC DF8F0C8F
Copy CRC DF8F0C8F
Accurately ripped (confidence 1) [53E885C5]
Copy OK
Track 6
Filename C:\! RUTRACKER\ru up\Oles Brothers & Theo Jorgensmann - Live In Poznan 2006 (2006) [FLAC]\06 - Aesthetic direction.wav
Peak level 77.8 %
Track quality 100.0 %
Test CRC 470DA058
Copy CRC 470DA058
Accurately ripped (confidence 1) [46F9D8B8]
Copy OK
Track 7
Filename C:\! RUTRACKER\ru up\Oles Brothers & Theo Jorgensmann - Live In Poznan 2006 (2006) [FLAC]\07 - Parbat.wav
Peak level 79.3 %
Track quality 100.0 %
Test CRC 5A95F860
Copy CRC 5A95F860
Accurately ripped (confidence 1) [6D5DF42D]
Copy OK
Track 8
Filename C:\! RUTRACKER\ru up\Oles Brothers & Theo Jorgensmann - Live In Poznan 2006 (2006) [FLAC]\08 - Byway.wav
Peak level 81.0 %
Track quality 100.0 %
Test CRC 224CAC1A
Copy CRC 224CAC1A
Accurately ripped (confidence 1) [DFC93B6C]
Copy OK
All tracks accurately ripped
No errors occurred
End of status report
 
Содержание индексной карты (.CUE)
REM GENRE Jazz
REM DATE 2006
REM DISCID 80113808
REM COMMENT "ExactAudioCopy v0.99pb5"
PERFORMER "Marcin Oles & Bartlomiej Brat Oles & Theo Jorgensmann"
TITLE "Live in Poznan 2006"
FILE "01 - Per Rata.wav" WAVE
TRACK 01 AUDIO
TITLE "Per Rata"
PERFORMER "Marcin Oles & Bartlomiej Brat Oles & Theo Jorgensmann"
FLAGS DCP
INDEX 01 00:00:00
FILE "02 - January 5.wav" WAVE
TRACK 02 AUDIO
TITLE "January 5"
PERFORMER "Marcin Oles & Bartlomiej Brat Oles & Theo Jorgensmann"
FLAGS DCP
INDEX 01 00:00:00
FILE "03 - Giuffree.wav" WAVE
TRACK 03 AUDIO
TITLE "Giuffree"
PERFORMER "Marcin Oles & Bartlomiej Brat Oles & Theo Jorgensmann"
FLAGS DCP
INDEX 01 00:00:00
FILE "04 - Menace.wav" WAVE
TRACK 04 AUDIO
TITLE "Menace"
PERFORMER "Marcin Oles & Bartlomiej Brat Oles & Theo Jorgensmann"
FLAGS DCP
INDEX 01 00:00:00
FILE "05 - Voices of the trees.wav" WAVE
TRACK 05 AUDIO
TITLE "Voices of the trees"
PERFORMER "Marcin Oles & Bartlomiej Brat Oles & Theo Jorgensmann"
FLAGS DCP
INDEX 01 00:00:00
FILE "06 - Aesthetic direction.wav" WAVE
TRACK 06 AUDIO
TITLE "Aesthetic direction"
PERFORMER "Marcin Oles & Bartlomiej Brat Oles & Theo Jorgensmann"
FLAGS DCP
INDEX 01 00:00:00
FILE "07 - Parbat.wav" WAVE
TRACK 07 AUDIO
TITLE "Parbat"
PERFORMER "Marcin Oles & Bartlomiej Brat Oles & Theo Jorgensmann"
FLAGS DCP
INDEX 01 00:00:00
FILE "08 - Byway.wav" WAVE
TRACK 08 AUDIO
TITLE "Byway"
PERFORMER "Marcin Oles & Bartlomiej Brat Oles & Theo Jorgensmann"
FLAGS DCP
INDEX 01 00:00:00
Доп. информация:
Recorded: Poznan "Estrada", March 19, 2006
 
Состав
Theo Jörgensmann - bassett clarinet
Marcin Oleś - double bass
Bartłomiej Brat Oleś - drums
По всем вопросам пишите личное сообщение пользователю M0p94ok.
09:00
205
Нет комментариев. Ваш будет первым!