Вы используете незарегистрированную версию компонента "Вкладки"!

Поиск

(Free Improvisation) The Ivo Perelman Quartet (Dominic Duval, Tomas Ulrich, Jay Rosen) - Sieiro - 1999, FLAC (image+.cue), lossless

(Free Improvisation) The Ivo Perelman Quartet (Dominic Duval, Tomas Ulrich, Jay Rosen) - Sieiro - 1999, FLAC (image+.cue), lossless
Треклист:
The Ivo Perelman Quartet / Sieiro
Жанр: Free Improvisation
Страна-производитель диска: UK
Год издания диска: 1999
Издатель (лейбл): Leo Records
Номер по каталогу: CD LR 271
Аудиокодек: FLAC (*.flac)
Тип рипа: image+.cue
Битрейт аудио: lossless
Продолжительность: 56:15
Источник (релизер): cd
Наличие сканов в содержимом раздачи: нет
Треклист:
1 Sieiro 6:15
2 Rush Hour 10:28
3 Santana 7:10
4 Arcos 11:05
5 The Link 12:02
6 The Vermicello 3:55
7 Assimptotica 5:07
 
Лог создания рипа
Exact Audio Copy V1.0 beta 2 from 29. April 2011
EAC extraction logfile from 31. December 2011, 17:15
Ivo Perelman / Sieiro
Used drive : Optiarc DVD RW AD-7170A Adapter: 0 ID: 0
Read mode : Secure
Utilize accurate stream : Yes
Defeat audio cache : Yes
Make use of C2 pointers : No
Read offset correction : 48
Overread into Lead-In and Lead-Out : No
Fill up missing offset samples with silence : Yes
Delete leading and trailing silent blocks : No
Null samples used in CRC calculations : Yes
Used interface : Native Win32 interface for Win NT & 2000
Used output format : User Defined Encoder
Selected bitrate : 320 kBit/s
Quality : High
Add ID3 tag : No
Command line compressor : C:\Program Files\Exact Audio Copy\Flac\flac.exe
Additional command line options : -V -8 -T "Date=%year%" -T "Genre=%genre%" %source%
TOC of the extracted CD
Track | Start | Length | Start sector | End sector
---------------------------------------------------------
1 | 0:00.00 | 6:15.67 | 0 | 28191
2 | 6:15.67 | 10:30.15 | 28192 | 75456
3 | 16:46.07 | 7:12.08 | 75457 | 107864
4 | 23:58.15 | 11:07.30 | 107865 | 157919
5 | 35:05.45 | 12:04.30 | 157920 | 212249
6 | 47:10.00 | 3:56.60 | 212250 | 230009
7 | 51:06.60 | 5:08.41 | 230010 | 253150
Range status and errors
Selected range
Filename C:\EAC\Downloads\Ivo Perelman - Sieiro.wav
Peak level 100.0 %
Extraction speed 5.2 X
Range quality 99.9 %
Test CRC EFC09BBA
Copy CRC EFC09BBA
Copy OK
No errors occurred
AccurateRip summary
Track 1 accurately ripped (confidence 2) [D9359BD4] (AR v1)
Track 2 accurately ripped (confidence 2) [226892C2] (AR v1)
Track 3 accurately ripped (confidence 2) [A039DFF2] (AR v1)
Track 4 accurately ripped (confidence 2) [10F4E31F] (AR v1)
Track 5 accurately ripped (confidence 2) [E5A61304] (AR v1)
Track 6 accurately ripped (confidence 2) [7C0F132B] (AR v1)
Track 7 accurately ripped (confidence 2) [DE4FDEB8] (AR v1)
All tracks accurately ripped
End of status report
==== Log checksum 0C7C15E47FF178D3FEB9CACBC3B707AEFA5EAF941651FA49E660F44BC83916DD ====
 
Содержание индексной карты (.CUE)
REM GENRE Jazz
REM DATE 1999
REM DISCID 4F0D2F07
REM COMMENT "ExactAudioCopy v1.0b2"
PERFORMER "Ivo Perelman"
TITLE "Sieiro"
FILE "Ivo Perelman - Sieiro.flac" WAVE
TRACK 01 AUDIO
TITLE "Sieiro"
PERFORMER "Ivo Perelman"
FLAGS DCP
INDEX 01 00:00:00
TRACK 02 AUDIO
TITLE "Rush Hour"
PERFORMER "Ivo Perelman"
FLAGS DCP
INDEX 00 06:14:22
INDEX 01 06:15:67
TRACK 03 AUDIO
TITLE "Santana"
PERFORMER "Ivo Perelman"
FLAGS DCP
INDEX 00 16:44:37
INDEX 01 16:46:07
TRACK 04 AUDIO
TITLE "Arcos"
PERFORMER "Ivo Perelman"
FLAGS DCP
INDEX 00 23:56:45
INDEX 01 23:58:15
TRACK 05 AUDIO
TITLE "The Link"
PERFORMER "Ivo Perelman"
FLAGS DCP
INDEX 00 35:03:74
INDEX 01 35:05:45
TRACK 06 AUDIO
TITLE "The Vermicello"
PERFORMER "Ivo Perelman"
FLAGS DCP
INDEX 00 47:08:30
INDEX 01 47:10:00
TRACK 07 AUDIO
TITLE "Assimptotica"
PERFORMER "Ivo Perelman"
FLAGS DCP
INDEX 00 51:05:15
INDEX 01 51:06:60
Доп. информация: Recorded on March 1998 at Hillside
 
Состав
Bass – Dominic Duval
Cello – Tomas Ulrich
Drums – Jay Rosen
Tenor Saxophone, Trombone [Tenor Trombivo] – Ivo Perelman
Any questions -> support@pro-jazz.com. По всем вопросам пишите -> support@pro-jazz.com
20:31
171
Нет комментариев. Ваш будет первым!