Вы используете незарегистрированную версию компонента "Вкладки"!

Поиск

(Free improvisation) The Clarinet Trio - Ballads And Related Objects - 2004, FLAC (tracks+.cue), lossless

(Free improvisation) The Clarinet Trio - Ballads And Related Objects - 2004, FLAC (tracks+.cue), lossless
Треклист:
The Clarinet Trio - Ballads And Related Objects
Жанр: Free improvisation
Страна-производитель диска: Great Britain
Год издания: 2004
Издатель (лейбл): Leo Records
Номер по каталогу: CD LR 415
Аудиокодек: FLAC (*.flac)
Тип рипа: tracks+.cue
Битрейт аудио: lossless
Продолжительность: 53 min
Источник (релизер): собственный рип с оригинального диска.
Наличие сканов в содержимом раздачи: да
Треклист:
01. Déjà Vu (Variation 1) 3:26
02. Seven 9-8 7:39
03. Collective No. 9, Parts 1-4 3:46
04. Almost Twenty-Eight 6:45
05. Variations On A Theme By Claude Debussy 5:09
06. Collective No. 10 (Lines) 1:58
07. 29 Shoes 6:49
08. Collective No. 11 (Hohe Objekte) 1:26
09. Verschiedene Annäherungen An Den Ton 3:19
10. Déjà Vu (Theme) 3:49
11. Desert... Bleue... East 5:27
12. Collective No. 12 (Ballad) 1:01
13. Déjà Vu (Variation 2) 1:45
 
Лог создания рипа
Exact Audio Copy V1.0 beta 3 from 29. August 2011
EAC extraction logfile from 31. August 2013, 7:52
Clarinet Trio / Ballads And Related Objects
Used drive : TSSTcorpCDDVDW SH-S222A Adapter: 1 ID: 0
Read mode : Secure
Utilize accurate stream : Yes
Defeat audio cache : Yes
Make use of C2 pointers : No
Read offset correction : 6
Overread into Lead-In and Lead-Out : No
Fill up missing offset samples with silence : Yes
Delete leading and trailing silent blocks : No
Null samples used in CRC calculations : Yes
Used interface : Native Win32 interface for Win NT & 2000
Gap handling : Appended to previous track
Used output format : User Defined Encoder
Selected bitrate : 896 kBit/s
Quality : High
Add ID3 tag : No
Command line compressor : C:\Tool\CD\EAC10\FLAC\FLAC.EXE
Additional command line options : -8 -V -T "ARTIST=%artist%" -T "TITLE=%title%" -T "ALBUM=%albumtitle%" -T "DATE=%year%" -T "TRACKNUMBER=%tracknr%" -T "GENRE=%genre%" -T "PERFORMER=%albuminterpret%" -T "ALBUMARTIST=%albumartist%" -T "ALBUM ARTIST=%albumartist%" -T "DISCNUMBER=%cdnumber%" -T "TOTALDISCS=%totalcds%" -T "TOTALTRACKS=%numtracks%" -T "COMMENT=EAC V1.0 beta 3, Secure Mode, Test & Copy, AccurateRip, FLAC -8" %source% -o %dest%
TOC of the extracted CD
Track | Start | Length | Start sector | End sector
---------------------------------------------------------
1 | 0:00.00 | 3:26.43 | 0 | 15492
2 | 3:26.43 | 7:39.29 | 15493 | 49946
3 | 11:05.72 | 3:46.23 | 49947 | 66919
4 | 14:52.20 | 6:45.69 | 66920 | 97363
5 | 21:38.14 | 5:09.37 | 97364 | 120575
6 | 26:47.51 | 1:58.10 | 120576 | 129435
7 | 28:45.61 | 6:49.00 | 129436 | 160110
8 | 35:34.61 | 1:26.54 | 160111 | 166614
9 | 37:01.40 | 3:19.31 | 166615 | 181570
10 | 40:20.71 | 3:49.47 | 181571 | 198792
11 | 44:10.43 | 5:27.50 | 198793 | 223367
12 | 49:38.18 | 1:01.05 | 223368 | 227947
13 | 50:39.23 | 1:45.45 | 227948 | 235867
Track 1
Filename C:\! UPLOAD\Clarinet Trio - Ballads And Related Objects (2004) [FLAC] {Leo}\01 - Deja Vu (Variation 1).wav
Pre-gap length 0:00:02.00
Peak level 29.1 %
Extraction speed 4.1 X
Track quality 100.0 %
Test CRC 4987D34A
Copy CRC 4987D34A
Accurately ripped (confidence 2) [79F235DB] (AR v2)
Copy OK
Track 2
Filename C:\! UPLOAD\Clarinet Trio - Ballads And Related Objects (2004) [FLAC] {Leo}\02 - Seven 9-8.wav
Peak level 89.6 %
Extraction speed 5.1 X
Track quality 100.0 %
Test CRC 15B2FC70
Copy CRC 15B2FC70
Accurately ripped (confidence 2) [2548FE50] (AR v2)
Copy OK
Track 3
Filename C:\! UPLOAD\Clarinet Trio - Ballads And Related Objects (2004) [FLAC] {Leo}\03 - Collective No. 9 (Part 1-4).wav
Pre-gap length 0:00:07.00
Peak level 72.6 %
Extraction speed 5.3 X
Track quality 100.0 %
Test CRC CE51F334
Copy CRC CE51F334
Accurately ripped (confidence 2) [50EA81F9] (AR v2)
Copy OK
Track 4
Filename C:\! UPLOAD\Clarinet Trio - Ballads And Related Objects (2004) [FLAC] {Leo}\04 - Almost Twenty-Eight.wav
Peak level 99.9 %
Extraction speed 6.2 X
Track quality 100.0 %
Test CRC 67286B80
Copy CRC 67286B80
Accurately ripped (confidence 2) [2221E344] (AR v2)
Copy OK
Track 5
Filename C:\! UPLOAD\Clarinet Trio - Ballads And Related Objects (2004) [FLAC] {Leo}\05 - Variations On A Theme By Claude Debussy.wav
Pre-gap length 0:00:06.19
Peak level 99.9 %
Extraction speed 6.5 X
Track quality 100.0 %
Test CRC BF93A998
Copy CRC BF93A998
Accurately ripped (confidence 2) [79B3D91B] (AR v2)
Copy OK
Track 6
Filename C:\! UPLOAD\Clarinet Trio - Ballads And Related Objects (2004) [FLAC] {Leo}\06 - Collective No. 10 (Lines).wav
Pre-gap length 0:00:05.01
Peak level 72.7 %
Extraction speed 5.7 X
Track quality 100.0 %
Test CRC 6C697895
Copy CRC 6C697895
Accurately ripped (confidence 2) [A8A7CAA7] (AR v2)
Copy OK
Track 7
Filename C:\! UPLOAD\Clarinet Trio - Ballads And Related Objects (2004) [FLAC] {Leo}\07 - 29 Shoes.wav
Peak level 99.9 %
Extraction speed 6.3 X
Track quality 99.9 %
Test CRC 9FE5F55D
Copy CRC 9FE5F55D
Accurately ripped (confidence 2) [A3D3065A] (AR v2)
Copy OK
Track 8
Filename C:\! UPLOAD\Clarinet Trio - Ballads And Related Objects (2004) [FLAC] {Leo}\08 - Collective No. 11 (Hohe Objekte).wav
Pre-gap length 0:00:06.00
Peak level 14.3 %
Extraction speed 5.6 X
Track quality 100.0 %
Test CRC E55B22F5
Copy CRC E55B22F5
Accurately ripped (confidence 2) [EDEA084E] (AR v2)
Copy OK
Track 9
Filename C:\! UPLOAD\Clarinet Trio - Ballads And Related Objects (2004) [FLAC] {Leo}\09 - Verschiedene Annaherungen an den Ton Ges.wav
Peak level 47.0 %
Extraction speed 7.1 X
Track quality 100.0 %
Test CRC 66A2CACD
Copy CRC 66A2CACD
Accurately ripped (confidence 2) [B101FF0D] (AR v2)
Copy OK
Track 10
Filename C:\! UPLOAD\Clarinet Trio - Ballads And Related Objects (2004) [FLAC] {Leo}\10 - Deja Vu (Theme).wav
Peak level 76.7 %
Extraction speed 7.4 X
Track quality 100.0 %
Test CRC 30187671
Copy CRC 30187671
Accurately ripped (confidence 2) [50EC27B5] (AR v2)
Copy OK
Track 11
Filename C:\! UPLOAD\Clarinet Trio - Ballads And Related Objects (2004) [FLAC] {Leo}\11 - Desert... Bleue... East.wav
Pre-gap length 0:00:08.00
Peak level 99.9 %
Extraction speed 6.8 X
Track quality 99.9 %
Test CRC A691F82D
Copy CRC A691F82D
Accurately ripped (confidence 2) [AE5CB81F] (AR v2)
Copy OK
Track 12
Filename C:\! UPLOAD\Clarinet Trio - Ballads And Related Objects (2004) [FLAC] {Leo}\12 - Collective No. 12 (Ballad).wav
Pre-gap length 0:00:11.33
Peak level 55.0 %
Extraction speed 3.3 X
Track quality 99.8 %
Test CRC 7CD191CF
Copy CRC 7CD191CF
Accurately ripped (confidence 2) [AB458E24] (AR v2)
Copy OK
Track 13
Filename C:\! UPLOAD\Clarinet Trio - Ballads And Related Objects (2004) [FLAC] {Leo}\13 - Deja Vu (Variation 2).wav
Peak level 41.0 %
Extraction speed 4.6 X
Track quality 99.8 %
Test CRC 2525D280
Copy CRC 2525D280
Accurately ripped (confidence 2) [2E145763] (AR v2)
Copy OK
All tracks accurately ripped
No errors occurred
End of status report
---- CUETools DB Plugin V2.1.3
[CTDB TOCID: m7JT48hvbVjciDmjla89oU0rBkQ-] found, Submit result: m7JT48hvbVjciDmjla89oU0rBkQ- has been confirmed
[3a8255da] (1/1) Accurately ripped
==== Log checksum 66E8F42AE91B54F4703CD1FB7C9FBDC386426BCC1F36EDFBB1CBFB86E1A7C6E0 ====
 
Содержание индексной карты (.CUE)
REM GENRE Jazz
REM DATE 2004
REM DISCID A20C480D
REM COMMENT "ExactAudioCopy v1.0b3"
PERFORMER "Clarinet Trio"
TITLE "Ballads And Related Objects"
FILE "01 - Deja Vu (Variation 1).wav" WAVE
TRACK 01 AUDIO
TITLE "Deja Vu (Variation 1)"
PERFORMER "Clarinet Trio"
INDEX 01 00:00:00
FILE "02 - Seven 9-8.wav" WAVE
TRACK 02 AUDIO
TITLE "Seven 9-8"
PERFORMER "Clarinet Trio"
INDEX 01 00:00:00
TRACK 03 AUDIO
TITLE "Collective No. 9 (Part 1-4)"
PERFORMER "Clarinet Trio"
INDEX 00 07:32:29
FILE "03 - Collective No. 9 (Part 1-4).wav" WAVE
INDEX 01 00:00:00
FILE "04 - Almost Twenty-Eight.wav" WAVE
TRACK 04 AUDIO
TITLE "Almost Twenty-Eight"
PERFORMER "Clarinet Trio"
INDEX 01 00:00:00
TRACK 05 AUDIO
TITLE "Variations On A Theme By Claude Debussy"
PERFORMER "Clarinet Trio"
INDEX 00 06:39:50
FILE "05 - Variations On A Theme By Claude Debussy.wav" WAVE
INDEX 01 00:00:00
TRACK 06 AUDIO
TITLE "Collective No. 10 (Lines)"
PERFORMER "Clarinet Trio"
INDEX 00 05:04:36
FILE "06 - Collective No. 10 (Lines).wav" WAVE
INDEX 01 00:00:00
FILE "07 - 29 Shoes.wav" WAVE
TRACK 07 AUDIO
TITLE "29 Shoes"
PERFORMER "Clarinet Trio"
INDEX 01 00:00:00
TRACK 08 AUDIO
TITLE "Collective No. 11 (Hohe Objekte)"
PERFORMER "Clarinet Trio"
INDEX 00 06:43:00
FILE "08 - Collective No. 11 (Hohe Objekte).wav" WAVE
INDEX 01 00:00:00
FILE "09 - Verschiedene Annaherungen an den Ton Ges.wav" WAVE
TRACK 09 AUDIO
TITLE "Verschiedene Annaherungen an den Ton Ges"
PERFORMER "Clarinet Trio"
INDEX 01 00:00:00
FILE "10 - Deja Vu (Theme).wav" WAVE
TRACK 10 AUDIO
TITLE "Deja Vu (Theme)"
PERFORMER "Clarinet Trio"
INDEX 01 00:00:00
TRACK 11 AUDIO
TITLE "Desert... Bleue... East"
PERFORMER "Clarinet Trio"
INDEX 00 03:41:47
FILE "11 - Desert... Bleue... East.wav" WAVE
INDEX 01 00:00:00
TRACK 12 AUDIO
TITLE "Collective No. 12 (Ballad)"
PERFORMER "Clarinet Trio"
INDEX 00 05:16:17
FILE "12 - Collective No. 12 (Ballad).wav" WAVE
INDEX 01 00:00:00
FILE "13 - Deja Vu (Variation 2).wav" WAVE
TRACK 13 AUDIO
TITLE "Deja Vu (Variation 2)"
PERFORMER "Clarinet Trio"
INDEX 01 00:00:00
Доп. информация:
Recorded on 23-24 August 2003 at SFB Studios, Berlin
 
Об альбоме (Glen Hall, Exclaim Magazine)
... ballads and related objects has chamber music precision, kaleidescopic arrangements, hot blowing and dynamic overall pacing of ideas and intensities. Ullmann's tunes deliver plenty to get your neurons firing and foot tapping ... highly recommended
 
Об альбоме (Chris Kelsey, Jazz Times)
...as all-horn bands go it doesn't get much better than this...
 
Состав
Gebhard Ullmann - bassclarinet
Jürgen Kupke - clarinet
Michael Thieke - altoclarinet, clarinet
По всем вопросам пишите личное сообщение пользователю M0p94ok.
19:45
175
Нет комментариев. Ваш будет первым!