Поиск

(Free improvisation) Company 91 - Volume 1 - 1994, FLAC (tracks+.cue), lossless

(Free improvisation) Company 91 - Volume 1 - 1994, FLAC (tracks+.cue), lossless
Company 91 - Volume 1
Жанр: Free improvisation
Страна-производитель диска: Great Britain
Год издания: 1994
Издатель (лейбл): Incus Records
Номер по каталогу: CD16
Аудиокодек: FLAC (*.flac)
Тип рипа: tracks+.cue
Битрейт аудио: lossless
Продолжительность: 65 min
Источник (релизер): собственный рип с оригинального диска.
Наличие сканов в содержимом раздачи: да
Треклист:
01. AB/VM
02. YR/AB/DB
03. VM/PL/PR
04. PL/PR/DB/YR/AB/VM
05. PT/DB
06. JZ/BK
07. DB/BK/JZ/PT
 
Лог создания рипа
Exact Audio Copy V1.0 beta 3 from 29. August 2011
EAC extraction logfile from 31. August 2013, 22:57
Company 91 / Company 91 Volume 1
Used drive : TSSTcorpCDDVDW SH-S222A Adapter: 1 ID: 0
Read mode : Secure
Utilize accurate stream : Yes
Defeat audio cache : Yes
Make use of C2 pointers : No
Read offset correction : 6
Overread into Lead-In and Lead-Out : No
Fill up missing offset samples with silence : Yes
Delete leading and trailing silent blocks : No
Null samples used in CRC calculations : Yes
Used interface : Native Win32 interface for Win NT & 2000
Gap handling : Appended to previous track
Used output format : User Defined Encoder
Selected bitrate : 896 kBit/s
Quality : High
Add ID3 tag : No
Command line compressor : C:\Tool\CD\EAC10\FLAC\FLAC.EXE
Additional command line options : -8 -V -T "ARTIST=%artist%" -T "TITLE=%title%" -T "ALBUM=%albumtitle%" -T "DATE=%year%" -T "TRACKNUMBER=%tracknr%" -T "GENRE=%genre%" -T "PERFORMER=%albuminterpret%" -T "ALBUMARTIST=%albumartist%" -T "ALBUM ARTIST=%albumartist%" -T "DISCNUMBER=%cdnumber%" -T "TOTALDISCS=%totalcds%" -T "TOTALTRACKS=%numtracks%" -T "COMMENT=EAC V1.0 beta 3, Secure Mode, Test & Copy, AccurateRip, FLAC -8" %source% -o %dest%
TOC of the extracted CD
Track | Start | Length | Start sector | End sector
---------------------------------------------------------
1 | 0:00.57 | 5:48.48 | 57 | 26204
2 | 5:49.30 | 10:08.50 | 26205 | 71854
3 | 15:58.05 | 5:25.60 | 71855 | 96289
4 | 21:23.65 | 11:20.10 | 96290 | 147299
5 | 32:44.00 | 10:17.57 | 147300 | 193631
6 | 43:01.57 | 11:02.43 | 193632 | 243324
7 | 54:04.25 | 10:51.32 | 243325 | 292181
Track 1
Filename C:\! UPLOAD\Company 91 - Company 91 Volume 1 (1994) [FLAC] {Incus}\01 - AB,VM.wav
Pre-gap length 0:00:02.57
Peak level 42.7 %
Extraction speed 4.6 X
Track quality 100.0 %
Test CRC 94614386
Copy CRC 94614386
Accurately ripped (confidence 3) [FD179200] (AR v1)
Copy OK
Track 2
Filename C:\! UPLOAD\Company 91 - Company 91 Volume 1 (1994) [FLAC] {Incus}\02 - YR,AB,DB.wav
Peak level 96.8 %
Extraction speed 5.7 X
Track quality 100.0 %
Test CRC 0F1E4336
Copy CRC 0F1E4336
Accurately ripped (confidence 3) [A94C2FE4] (AR v1)
Copy OK
Track 3
Filename C:\! UPLOAD\Company 91 - Company 91 Volume 1 (1994) [FLAC] {Incus}\03 - VM,PL,PR.wav
Peak level 84.1 %
Extraction speed 6.0 X
Track quality 100.0 %
Test CRC BAE098B1
Copy CRC BAE098B1
Accurately ripped (confidence 3) [5DD4B8A9] (AR v1)
Copy OK
Track 4
Filename C:\! UPLOAD\Company 91 - Company 91 Volume 1 (1994) [FLAC] {Incus}\04 - PL,PR,DB,YR,AB,VM.wav
Peak level 83.5 %
Extraction speed 7.1 X
Track quality 100.0 %
Test CRC 223E7DAC
Copy CRC 223E7DAC
Accurately ripped (confidence 3) [AECD5E75] (AR v1)
Copy OK
Track 5
Filename C:\! UPLOAD\Company 91 - Company 91 Volume 1 (1994) [FLAC] {Incus}\05 - PT,DB.wav
Peak level 52.5 %
Extraction speed 7.8 X
Track quality 100.0 %
Test CRC BAB2C8F0
Copy CRC BAB2C8F0
Accurately ripped (confidence 3) [F02BDF93] (AR v1)
Copy OK
Track 6
Filename C:\! UPLOAD\Company 91 - Company 91 Volume 1 (1994) [FLAC] {Incus}\06 - JZ,BK.wav
Peak level 57.1 %
Extraction speed 8.5 X
Track quality 100.0 %
Test CRC 1D2A11B2
Copy CRC 1D2A11B2
Accurately ripped (confidence 3) [F7B71716] (AR v1)
Copy OK
Track 7
Filename C:\! UPLOAD\Company 91 - Company 91 Volume 1 (1994) [FLAC] {Incus}\07 - DB,BK,JZ,PT.wav
Peak level 67.8 %
Extraction speed 9.1 X
Track quality 100.0 %
Test CRC CA1309A5
Copy CRC CA1309A5
Accurately ripped (confidence 3) [7BB591A1] (AR v1)
Copy OK
All tracks accurately ripped
No errors occurred
End of status report
==== Log checksum EA7A6E3A2469694572CB4FC1B891CC8D2C1DBAA1D53E98ADE618D27D46725005 ====
 
Содержание индексной карты (.CUE)
REM GENRE Jazz
REM DATE 1994
REM DISCID 610F3707
REM COMMENT "ExactAudioCopy v1.0b3"
CATALOG 0000000000000
PERFORMER "Company 91"
TITLE "Company 91 Volume 1"
FILE "01 - AB,VM.wav" WAVE
TRACK 01 AUDIO
TITLE "AB/VM"
PERFORMER "Company 91"
PREGAP 00:00:57
INDEX 01 00:00:00
FILE "02 - YR,AB,DB.wav" WAVE
TRACK 02 AUDIO
TITLE "YR/AB/DB"
PERFORMER "Company 91"
INDEX 01 00:00:00
FILE "03 - VM,PL,PR.wav" WAVE
TRACK 03 AUDIO
TITLE "VM/PL/PR"
PERFORMER "Company 91"
INDEX 01 00:00:00
FILE "04 - PL,PR,DB,YR,AB,VM.wav" WAVE
TRACK 04 AUDIO
TITLE "PL/PR/DB/YR/AB/VM"
PERFORMER "Company 91"
INDEX 01 00:00:00
FILE "05 - PT,DB.wav" WAVE
TRACK 05 AUDIO
TITLE "PT/DB"
PERFORMER "Company 91"
INDEX 01 00:00:00
FILE "06 - JZ,BK.wav" WAVE
TRACK 06 AUDIO
TITLE "JZ/BK"
PERFORMER "Company 91"
INDEX 01 00:00:00
FILE "07 - DB,BK,JZ,PT.wav" WAVE
TRACK 07 AUDIO
TITLE "DB/BK/JZ/PT"
PERFORMER "Company 91"
INDEX 01 00:00:00
Доп. информация:
Recorded live during the Company Week 1991
Volume 1 is taken from the first two days (Tuesday and Wednesday) of a five-day jam session/workshop riot that took place in England and featured musicians from the U.S.A., Britain, and Europe -- well, Germany and France anyway.
The titles of the pieces are simply the initials of whoever took part in the improvisations.
 
Об альбоме (Brian Olewnick)
Company Week had been an ongoing project of guitarist Derek Bailey since the early '80s, the idea being to invite musicians from disparate genres, throw them together in totally improvisatory situations, and see what develops.
The nine musicians perform in various groupings ranging from two to six members and, generally, the music which results falls into what might be termed "standard" free improv, even a bit tentative at times.
 
Состав
Alexander Balanescu - violin (1,2,4)
Vanessa Mackness - voice (1,3,4)
Yves Robert - trombone (2,4)
Derek Bailey - guitar (2,4,5,7)
Paul Lovens - percussion (3,4)
Paul Rogers - bass (3,4)
Pat Thomas - electronics, keyboard (5,7)
Buckethead - guitar (6,7)
John Zorn - alto (6,7)
19:44
273
Нет комментариев. Ваш будет первым!