Вы используете незарегистрированную версию компонента "Вкладки"!

Поиск

(Free Improvisation, Spoken Word, Experimental) [CD] baba-oe mf (Jaap Blonk, Bart van der Putten, Pieter Meurs) / Hugo Ball - Six Sound Poems - 1998, FLAC (image+.cue), lossless

(Free Improvisation, Spoken Word, Experimental) [CD] baba-oe mf (Jaap Blonk, Bart van der Putten, Pieter Meurs) / Hugo Ball - Six Sound Poems - 1998, FLAC (image+.cue), lossless
Треклист:
BABA-OE MF / Hugo Ball - Six Sound Poems
Жанр: Free Improvisation, Spoken Word, Experimental
Носитель: CD
Страна-производитель диска (релиза): Holland
Год издания: 1998
Издатель (лейбл): Kontrans
Номер по каталогу: Kontrans 844
Аудиокодек: FLAC (*.flac)
Тип рипа: image+.cue
Битрейт аудио: lossless
Продолжительность: 50:59
Источник (релизер): gssmg7
Наличие сканов в содержимом раздачи: да
Треклист:
1. Wolken (Clouds) 7:42
2. Katzen und Pfauen (Cats and Peacocks) 5:01
3. Karawane (Caravan) 6:01
4. Gadji beri bimba 6:19
5. Totenklage (Dirge) 14:07
6. Seepferdchen und flugfische (Seahorse and Flying Fisch) 10:32
 
Лог создания рипа
Exact Audio Copy V1.0 beta 2 from 29. April 2011
EAC extraction logfile from 11. January 2016, 23:27
BABA-OEMF / Hugo Ball - Six Sound Poems
Used drive : Optiarc DVD RW AD-5280S Adapter: 1 ID: 1
Read mode : Secure
Utilize accurate stream : Yes
Defeat audio cache : Yes
Make use of C2 pointers : No
Read offset correction : 48
Overread into Lead-In and Lead-Out : No
Fill up missing offset samples with silence : Yes
Delete leading and trailing silent blocks : No
Null samples used in CRC calculations : Yes
Used interface : Installed external ASPI interface
Used output format : User Defined Encoder
Selected bitrate : 128 kBit/s
Quality : High
Add ID3 tag : No
Command line compressor : C:\Program Files\FLAC\flac.exe
Additional command line options : -V -8 -T "Genre=%genre%" -T "Artist=%artist%" -T "Title=%title%" -T "Album=%albumtitle%" -T "Date=%year%" -T "Tracknumber=%tracknr%" -T "Comment=%comment%" %source%
TOC of the extracted CD
Track | Start | Length | Start sector | End sector
---------------------------------------------------------
1 | 0:00.00 | 7:49.30 | 0 | 35204
2 | 7:49.30 | 5:08.47 | 35205 | 58351
3 | 12:58.02 | 6:09.52 | 58352 | 86078
4 | 19:07.54 | 6:26.41 | 86079 | 115069
5 | 25:34.20 | 14:13.00 | 115070 | 179044
6 | 39:47.20 | 11:12.47 | 179045 | 229491
Range status and errors
Selected range
Filename C:\BABA-OEMF (1998) - Hugo Ball - Six Sound Poems\BABA-OEMF (1998) - Hugo Ball - Six Sound Poems.wav
Peak level 99.3 %
Extraction speed 3.8 X
Range quality 100.0 %
Test CRC 2D2A618C
Copy CRC 2D2A618C
Copy OK
No errors occurred
AccurateRip summary
Track 1 not present in database
Track 2 not present in database
Track 3 not present in database
Track 4 not present in database
Track 5 not present in database
Track 6 not present in database
None of the tracks are present in the AccurateRip database
End of status report
==== Log checksum 665677386EEEACC2EB76765F2580AAA820BDC24CA406565A1480A1123839C59E ====
 
Содержание индексной карты (.CUE)
Exact Audio Copy V1.0 beta 2 from 29. April 2011
EAC extraction logfile from 11. January 2016, 23:27
BABA-OEMF / Hugo Ball - Six Sound Poems
Used drive : Optiarc DVD RW AD-5280S Adapter: 1 ID: 1
Read mode : Secure
Utilize accurate stream : Yes
Defeat audio cache : Yes
Make use of C2 pointers : No
Read offset correction : 48
Overread into Lead-In and Lead-Out : No
Fill up missing offset samples with silence : Yes
Delete leading and trailing silent blocks : No
Null samples used in CRC calculations : Yes
Used interface : Installed external ASPI interface
Used output format : User Defined Encoder
Selected bitrate : 128 kBit/s
Quality : High
Add ID3 tag : No
Command line compressor : C:\Program Files\FLAC\flac.exe
Additional command line options : -V -8 -T "Genre=%genre%" -T "Artist=%artist%" -T "Title=%title%" -T "Album=%albumtitle%" -T "Date=%year%" -T "Tracknumber=%tracknr%" -T "Comment=%comment%" %source%
TOC of the extracted CD
Track | Start | Length | Start sector | End sector
---------------------------------------------------------
1 | 0:00.00 | 7:49.30 | 0 | 35204
2 | 7:49.30 | 5:08.47 | 35205 | 58351
3 | 12:58.02 | 6:09.52 | 58352 | 86078
4 | 19:07.54 | 6:26.41 | 86079 | 115069
5 | 25:34.20 | 14:13.00 | 115070 | 179044
6 | 39:47.20 | 11:12.47 | 179045 | 229491
Range status and errors
Selected range
Filename C:\BABA-OEMF (1998) - Hugo Ball - Six Sound Poems\BABA-OEMF (1998) - Hugo Ball - Six Sound Poems.wav
Peak level 99.3 %
Extraction speed 3.8 X
Range quality 100.0 %
Test CRC 2D2A618C
Copy CRC 2D2A618C
Copy OK
No errors occurred
AccurateRip summary
Track 1 not present in database
Track 2 not present in database
Track 3 not present in database
Track 4 not present in database
Track 5 not present in database
Track 6 not present in database
None of the tracks are present in the AccurateRip database
End of status report
==== Log checksum 665677386EEEACC2EB76765F2580AAA820BDC24CA406565A1480A1123839C59E ====
 
Доп. информация
Music by Jaap Blonk, Bart van der Putten and Pieter Meurs
Texts by Hugo Ball
http://magazines.russ.ru/voplit/2007/4/ba23.html
 
Об альбоме (сборнике)
Recorded live at BIMHUIS (Amsterdam, The Netherlands), May 11, 1989.
 
Состав
Jaap Blonk - voice
Bart van der Putten - alto saxophone
Pieter Meurs - double bass
По всем вопросам пишите личное сообщение пользователю M0p94ok.
18:12
150
Нет комментариев. Ваш будет первым!