Вы используете незарегистрированную версию компонента "Вкладки"!

Поиск

(Free Improvisation) [CD] Erb / Baker (Christoph Erb, Jim Baker) - Bottervagl - 2012, FLAC (tracks+.cue), lossless

(Free Improvisation) [CD] Erb / Baker (Christoph Erb, Jim Baker) - Bottervagl - 2012, FLAC (tracks+.cue), lossless
Треклист:
Erb, Baker / Bottervagl
Жанр: Free Improvisation
Носитель: CD
Страна-производитель диска (релиза): Switzerland
Год издания: 2012
Издатель (лейбл): Veto Records
Номер по каталогу: 006
Аудиокодек: FLAC (*.flac)
Тип рипа: tracks+.cue
Битрейт аудио: lossless
Продолжительность: 47:17
Источник (релизер): cd
Наличие сканов в содержимом раздачи: нет
Треклист:
1. Motyl 7:53
2. Tximeleta 11:46
3. Kupu-kupu 6:38
4. Gwilwileth (For Donna The Angel) 14:20
5. Kelebek 6:37
 
Лог создания рипа
Exact Audio Copy V1.0 beta 3 from 29. August 2011
EAC extraction logfile from 10. January 2016, 20:43
Erb, Baker / Bottervagl
Used drive : ASUS DRW-24F1ST a Adapter: 0 ID: 0
Read mode : Secure
Utilize accurate stream : Yes
Defeat audio cache : Yes
Make use of C2 pointers : No
Read offset correction : 6
Overread into Lead-In and Lead-Out : No
Fill up missing offset samples with silence : Yes
Delete leading and trailing silent blocks : No
Null samples used in CRC calculations : Yes
Used interface : Native Win32 interface for Win NT & 2000
Gap handling : Appended to previous track
Used output format : User Defined Encoder
Selected bitrate : 320 kBit/s
Quality : High
Add ID3 tag : No
Command line compressor : D:\Programs\Exact Audio Copy\Flac\flac.exe
Additional command line options : -V -8 -T "Genre=%genre%" -T "Artist=%artist%" -T "Title=%title%" -T "Album=%albumtitle%" -T "Date=%year%" -T "Tracknumber=%tracknr%" -T "Comment=%comment%" %source%
TOC of the extracted CD
Track | Start | Length | Start sector | End sector
---------------------------------------------------------
1 | 0:00.00 | 7:53.51 | 0 | 35525
2 | 7:53.51 | 11:46.63 | 35526 | 88538
3 | 19:40.39 | 6:38.44 | 88539 | 118432
4 | 26:19.08 | 14:20.37 | 118433 | 182969
5 | 40:39.45 | 6:37.18 | 182970 | 212762
Track 1
Filename D:\EAC\01 Motyl.wav
Pre-gap length 0:00:02.00
Peak level 100.0 %
Extraction speed 4.9 X
Track quality 100.0 %
Test CRC ECB0DC94
Copy CRC ECB0DC94
Track not present in AccurateRip database
Copy OK
Track 2
Filename D:\EAC\02 Tximeleta.wav
Peak level 100.0 %
Extraction speed 5.9 X
Track quality 99.9 %
Test CRC 2472E31E
Copy CRC 2472E31E
Track not present in AccurateRip database
Copy OK
Track 3
Filename D:\EAC\03 Kupu-kupu.wav
Peak level 80.5 %
Extraction speed 6.8 X
Track quality 100.0 %
Test CRC 428549D6
Copy CRC 428549D6
Track not present in AccurateRip database
Copy OK
Track 4
Filename D:\EAC\04 Gwilwileth (For Donna The Angel).wav
Peak level 100.0 %
Extraction speed 8.0 X
Track quality 100.0 %
Test CRC D6F7F13C
Copy CRC D6F7F13C
Track not present in AccurateRip database
Copy OK
Track 5
Filename D:\EAC\05 Kelebek.wav
Peak level 98.2 %
Extraction speed 8.2 X
Track quality 100.0 %
Test CRC 7DC77481
Copy CRC 7DC77481
Track not present in AccurateRip database
Copy OK
None of the tracks are present in the AccurateRip database
No errors occurred
End of status report
==== Log checksum 0EBE1523C1721FE81DBECB64B2724B1075A7C02F7A6D02E59A8C278D712165CB ====
 
Содержание индексной карты (.CUE)
REM GENRE Jazz
REM DATE 2012
REM DISCID 380B1405
REM COMMENT "ExactAudioCopy v1.0b3"
PERFORMER "Erb, Baker"
TITLE "Bottervagl"
FILE "01 Motyl.wav" WAVE
TRACK 01 AUDIO
TITLE "Motyl"
PERFORMER "Erb, Baker"
ISRC CH6213200190
INDEX 01 00:00:00
FILE "02 Tximeleta.wav" WAVE
TRACK 02 AUDIO
TITLE "Tximeleta"
PERFORMER "Erb, Baker"
ISRC CH6211300110
INDEX 01 00:00:00
FILE "03 Kupu-kupu.wav" WAVE
TRACK 03 AUDIO
TITLE "Kupu-kupu"
PERFORMER "Erb, Baker"
ISRC CH6211300111
INDEX 01 00:00:00
FILE "04 Gwilwileth (For Donna The Angel).wav" WAVE
TRACK 04 AUDIO
TITLE "Gwilwileth (For Donna The Angel)"
PERFORMER "Erb, Baker"
ISRC CH6211300112
INDEX 01 00:00:00
FILE "05 Kelebek.wav" WAVE
TRACK 05 AUDIO
TITLE "Kelebek"
PERFORMER "Erb, Baker"
ISRC CH6211300113
INDEX 01 00:00:00
Доп. информация: Recorded April 15th, 2012 at Kingsize Studio, Chicago
 
Состав
Bass Clarinet, Tenor Saxophone, Producer – Christoph Erb
Piano – Jim Baker
По всем вопросам пишите личное сообщение пользователю M0p94ok.
18:13
140
Нет комментариев. Ваш будет первым!