Вы используете незарегистрированную версию компонента "Вкладки"!

Поиск

(Free Improvisation) Simon Nabatov, Ernst Reijseger, Matthias Schubert - Square Down - 2011, FLAC (image+.cue), lossless

(Free Improvisation) Simon Nabatov, Ernst Reijseger, Matthias Schubert - Square Down - 2011, FLAC (image+.cue), lossless
Треклист:
Nabatov, Reijseger, Schubert / Square Down
Жанр: Free Improvisation
Страна-производитель диска: UK
Год издания: 2011
Издатель (лейбл): Leo Records
Номер по каталогу: CD LR 607
Аудиокодек: FLAC (*.flac)
Тип рипа: image+.cue
Битрейт аудио: lossless
Продолжительность: 53:32
Источник (релизер): cd
Наличие сканов в содержимом раздачи: нет
Треклист:
1 Long Haul 16:44
2 Genostasis 6:07
3 Run For It 3:24
4 Chapter And Verse 9:39
5 Plangent Cry 14:16
6 Giant Lips 3:09
 
Лог создания рипа
Exact Audio Copy V1.0 beta 2 from 29. April 2011
EAC extraction logfile from 27. July 2012, 10:40
Nabatov, Reijseger, Schubert / Square Down
Used drive : Optiarc DVD RW AD-7170A Adapter: 0 ID: 0
Read mode : Secure
Utilize accurate stream : Yes
Defeat audio cache : Yes
Make use of C2 pointers : No
Read offset correction : 48
Overread into Lead-In and Lead-Out : No
Fill up missing offset samples with silence : Yes
Delete leading and trailing silent blocks : No
Null samples used in CRC calculations : Yes
Used interface : Native Win32 interface for Win NT & 2000
Used output format : User Defined Encoder
Selected bitrate : 320 kBit/s
Quality : High
Add ID3 tag : No
Command line compressor : C:\Program Files\Exact Audio Copy\Flac\flac.exe
Additional command line options : -V -8 -T "Date=%year%" -T "Genre=%genre%" %source%
TOC of the extracted CD
Track | Start | Length | Start sector | End sector
---------------------------------------------------------
1 | 0:00.00 | 16:46.45 | 0 | 75494
2 | 16:46.45 | 6:08.11 | 75495 | 103105
3 | 22:54.56 | 3:25.16 | 103106 | 118496
4 | 26:19.72 | 9:42.44 | 118497 | 162190
5 | 36:02.41 | 14:20.05 | 162191 | 226695
6 | 50:22.46 | 3:09.46 | 226696 | 240916
Range status and errors
Selected range
Filename K:\ЕАС\Nabatov, Reijseger, Schubert - Square Down.wav
Peak level 98.8 %
Extraction speed 2.0 X
Range quality 100.0 %
Test CRC EB627D4E
Copy CRC EB627D4E
Copy OK
No errors occurred
AccurateRip summary
Track 1 not present in database
Track 2 not present in database
Track 3 not present in database
Track 4 not present in database
Track 5 not present in database
Track 6 not present in database
None of the tracks are present in the AccurateRip database
End of status report
==== Log checksum EBDFCD296893C38CC866DB7AEADA3D491BDE4621FBF57463E64FDD9F8398EF9C ====
 
Содержание индексной карты (.CUE)
REM GENRE Jazz
REM DATE 2011
REM DISCID 410C8C06
REM COMMENT "ExactAudioCopy v1.0b2"
PERFORMER "Nabatov, Reijseger, Schubert"
TITLE "Square Down"
FILE "Nabatov, Reijseger, Schubert - Square Down.flac" WAVE
TRACK 01 AUDIO
TITLE "Long Haul"
PERFORMER "Nabatov, Reijseger, Schubert"
ISRC GBJZD0110107
FLAGS DCP
INDEX 01 00:00:00
TRACK 02 AUDIO
TITLE "Genostasis"
PERFORMER "Nabatov, Reijseger, Schubert"
ISRC GBJZD0110108
FLAGS DCP
INDEX 00 16:44:49
INDEX 01 16:46:45
TRACK 03 AUDIO
TITLE "Run For It"
PERFORMER "Nabatov, Reijseger, Schubert"
ISRC GBJZD0110109
FLAGS DCP
INDEX 00 22:54:18
INDEX 01 22:54:56
TRACK 04 AUDIO
TITLE "Chapter And Verse"
PERFORMER "Nabatov, Reijseger, Schubert"
ISRC GBJZD0110110
FLAGS DCP
INDEX 00 26:19:30
INDEX 01 26:19:72
TRACK 05 AUDIO
TITLE "Plangent Cry"
PERFORMER "Nabatov, Reijseger, Schubert"
ISRC GBJZD0110111
FLAGS DCP
INDEX 00 35:59:33
INDEX 01 36:02:41
TRACK 06 AUDIO
TITLE "Giant Lips"
PERFORMER "Nabatov, Reijseger, Schubert"
ISRC GBJZD0110112
FLAGS DCP
INDEX 00 50:19:20
INDEX 01 50:22:46
 
Состав
Cello – Ernst Reijseger
Piano – Simon Nabatov
Tenor Saxophone – Matthias Schubert
Any questions -> support@pro-jazz.com. По всем вопросам пишите -> support@pro-jazz.com
02:37
151
Нет комментариев. Ваш будет первым!