Вы используете незарегистрированную версию компонента "Вкладки"!

Поиск

(Free Improvisation) John Butcher, Phil Durrant, Paul Lovens, Radu Malfatti, John Russell - News From The Shed - 2005, FLAC (image+.cue), lossless

(Free Improvisation) John Butcher, Phil Durrant, Paul Lovens, Radu Malfatti, John Russell - News From The Shed - 2005, FLAC (image+.cue), lossless
Треклист:
John Butcher, Phil Durrant, Paul Lovens, Radu Malfatti, John Russell / News From The Shed
Жанр: Free Improvisation
Страна-производитель диска: UK
Год издания: 2005
Издатель (лейбл): Emanem
Номер по каталогу: 4121
Аудиокодек: FLAC (*.flac)
Тип рипа: image+.cue
Битрейт аудио: lossless
Продолжительность: 63:21
Источник (релизер): cd
Наличие сканов в содержимом раздачи: нет
Треклист:
1 News From The Shed 7:15
2 The Gabdash 2:32
3 Reading The River 4:25
4 Kickshaws 3:23
5 Everything Stops For Tea 2:58
6 Sticks And Stones 4:44
7 Weaves 4:21
8 Whisstrionics 5:45
9 Meantime 3:49
10 Pepper's Ghost 4:47
11 The Clipper 3:52
12 Coracle 6:29
13 Crooke's Dark Space 5:22
14 Inkle 2:34
 
Лог создания рипа
Exact Audio Copy V1.0 beta 2 from 29. April 2011
EAC extraction logfile from 26. July 2012, 12:46
John Butcher / News from the Shed
Used drive : Optiarc DVD RW AD-7170A Adapter: 0 ID: 0
Read mode : Secure
Utilize accurate stream : Yes
Defeat audio cache : Yes
Make use of C2 pointers : No
Read offset correction : 48
Overread into Lead-In and Lead-Out : No
Fill up missing offset samples with silence : Yes
Delete leading and trailing silent blocks : No
Null samples used in CRC calculations : Yes
Used interface : Native Win32 interface for Win NT & 2000
Used output format : User Defined Encoder
Selected bitrate : 320 kBit/s
Quality : High
Add ID3 tag : No
Command line compressor : C:\Program Files\Exact Audio Copy\Flac\flac.exe
Additional command line options : -V -8 -T "Date=%year%" -T "Genre=%genre%" %source%
TOC of the extracted CD
Track | Start | Length | Start sector | End sector
---------------------------------------------------------
1 | 0:00.00 | 7:19.04 | 0 | 32928
2 | 7:19.04 | 2:36.06 | 32929 | 44634
3 | 9:55.10 | 4:29.03 | 44635 | 64812
4 | 14:24.13 | 3:27.26 | 64813 | 80363
5 | 17:51.39 | 3:04.01 | 80364 | 94164
6 | 20:55.40 | 4:48.12 | 94165 | 115776
7 | 25:43.52 | 4:25.69 | 115777 | 135720
8 | 30:09.46 | 5:49.12 | 135721 | 161907
9 | 35:58.58 | 3:53.72 | 161908 | 179454
10 | 39:52.55 | 4:55.66 | 179455 | 201645
11 | 44:48.46 | 3:56.67 | 201646 | 219412
12 | 48:45.38 | 6:33.30 | 219413 | 248917
13 | 55:18.68 | 5:26.45 | 248918 | 273412
14 | 60:45.38 | 2:34.14 | 273413 | 284976
Range status and errors
Selected range
Filename K:\ЕАС\John Butcher - News from the Shed.wav
Peak level 99.9 %
Extraction speed 2.0 X
Range quality 100.0 %
Test CRC B56E4E5B
Copy CRC B56E4E5B
Copy OK
No errors occurred
AccurateRip summary
Track 1 not present in database
Track 2 not present in database
Track 3 not present in database
Track 4 not present in database
Track 5 not present in database
Track 6 not present in database
Track 7 not present in database
Track 8 not present in database
Track 9 not present in database
Track 10 not present in database
Track 11 not present in database
Track 12 not present in database
Track 13 not present in database
Track 14 not present in database
None of the tracks are present in the AccurateRip database
End of status report
==== Log checksum 3E5BE86F357EF83A32BE4E89C3C9DC8859056A48FF8172CD48C89641A60F5F23 ====
 
Содержание индексной карты (.CUE)
REM GENRE Jazz
REM DATE 2006
REM DISCID C40ED70E
REM COMMENT "ExactAudioCopy v1.0b2"
PERFORMER "John Butcher"
TITLE "News from the Shed"
FILE "John Butcher - News from the Shed.flac" WAVE
TRACK 01 AUDIO
TITLE "News from the Shed"
PERFORMER "John Butcher"
ISRC 000000000000
INDEX 01 00:00:00
TRACK 02 AUDIO
TITLE "The Gabdash"
PERFORMER "John Butcher"
ISRC 000000000000
INDEX 00 07:15:04
INDEX 01 07:19:04
TRACK 03 AUDIO
TITLE "Reading the River"
PERFORMER "John Butcher"
ISRC 000000000000
INDEX 00 09:51:10
INDEX 01 09:55:10
TRACK 04 AUDIO
TITLE "Kickshaws"
PERFORMER "John Butcher"
ISRC 000000000000
INDEX 00 14:20:13
INDEX 01 14:24:13
TRACK 05 AUDIO
TITLE "Everything Stops for Tea"
PERFORMER "John Butcher"
ISRC 000000000000
INDEX 00 17:47:39
INDEX 01 17:51:39
TRACK 06 AUDIO
TITLE "Sticks and Stones"
PERFORMER "John Butcher"
ISRC 000000000000
INDEX 00 20:49:40
INDEX 01 20:55:40
TRACK 07 AUDIO
TITLE "Weaves"
PERFORMER "John Butcher"
ISRC 000000000000
INDEX 00 25:39:52
INDEX 01 25:43:52
TRACK 08 AUDIO
TITLE "Whisstrionics"
PERFORMER "John Butcher"
ISRC 000000000000
INDEX 00 30:05:46
INDEX 01 30:09:46
TRACK 09 AUDIO
TITLE "Mean Time"
PERFORMER "John Butcher"
ISRC 000000000000
INDEX 00 35:54:58
INDEX 01 35:58:58
TRACK 10 AUDIO
TITLE "Pepper's Ghost"
PERFORMER "John Butcher"
ISRC 000000000000
INDEX 00 39:48:55
INDEX 01 39:52:55
TRACK 11 AUDIO
TITLE "The Clipper"
PERFORMER "John Butcher"
ISRC 000000000000
INDEX 00 44:40:46
INDEX 01 44:48:46
TRACK 12 AUDIO
TITLE "Coracle"
PERFORMER "John Butcher"
ISRC 000000000000
INDEX 00 48:41:38
INDEX 01 48:45:38
TRACK 13 AUDIO
TITLE "Crooke's DarkSpace"
PERFORMER "John Butcher"
ISRC 000000000000
INDEX 00 55:14:68
INDEX 01 55:18:68
TRACK 14 AUDIO
TITLE "Inkle"
PERFORMER "John Butcher"
ISRC 000000000000
INDEX 00 60:41:38
INDEX 01 60:45:38
Доп. информация: Digital studio recording made in London - 1989 February 22.
Tracks 1 - 10 originally released on Acta. Tracks 11 - 14 previously unissued.
 
Состав
Acoustic Guitar – John Russell
Drums [Selected], Cymbal [Selected], Saw – Paul Lovens
Tenor Saxophone, Soprano Saxophone, Liner Notes – John Butcher
Trombone, Zither, Performer [Accessories] – Radu Malfatti
Violin, Electronics – Phil Durrant
Any questions -> support@pro-jazz.com. По всем вопросам пишите -> support@pro-jazz.com
02:37
162
Нет комментариев. Ваш будет первым!