Вы используете незарегистрированную версию компонента "Вкладки"!

Поиск

(free improvisation) Paul Dunmall, John Adams & Mark Sanders - Ghostly Thoughts (1997), FLAC (tracks+.cue), lossless

Треклист:


Paul Dunmall, John Adams & Mark Sanders
Ghostly Thoughts (1997)
Жанр: free improvisation
Год выпуска: 1997
Издатель (лейбл): hatOLOGY 503
Формат: FLAC (tracks+.cue)
Битрейт аудио: lossless
Продолжительность 58`19
Источник: what.cd
Drums – Mark Sanders
Guitar – John Adams (6)
Tenor Saxophone, Baritone Saxophone – Paul Dunmall
17 July 1996 at Gateway Studio, Kingston Upon Thames, Surrey.

tracks

1 Misericords [13:04]
2 Fred The Needle [7:06]
3 A Bit Of Rice, Nice [15:00]
4 Ghostly Thoughts [4:55]
5 Human Machines [8:51]
6 Up And Down The Back [9:22]


 
.log
Exact Audio Copy V1.0 beta 3 from 29. August 2011
EAC extraction logfile from 1. August 2012, 16:12
Paul Dunmall, John Adams & Mark Sanders / Ghostly Thoughts
Used drive : TSSTcorpCDDVDW SE-S084F Adapter: 1 ID: 0
Read mode : Secure
Utilize accurate stream : Yes
Defeat audio cache : Yes
Make use of C2 pointers : No
Read offset correction : 6
Overread into Lead-In and Lead-Out : No
Fill up missing offset samples with silence : Yes
Delete leading and trailing silent blocks : No
Null samples used in CRC calculations : Yes
Used interface : Native Win32 interface for Win NT & 2000
Gap handling : Appended to previous track
Used output format : User Defined Encoder
Selected bitrate : 1024 kBit/s
Quality : High
Add ID3 tag : No
Command line compressor : C:\Program Files (x86)\Exact Audio Copy\FLAC\FLAC.EXE
Additional command line options : -8 -V -T "ARTIST=%artist%" -T "TITLE=%title%" -T "ALBUM=%albumtitle%" -T "DATE=%year%" -T "TRACKNUMBER=%tracknr%" -T "GENRE=%genre%" -T "PERFORMER=%albuminterpret%" -T "COMPOSER=%composer%" %haslyrics%--tag-from-file=LYRICS="%lyricsfile%"%haslyrics% -T "ALBUMARTIST=%albumartist%" -T "DISCNUMBER=%cdnumber%" -T "TOTALDISCS=%totalcds%" -T "TOTALTRACKS=%numtracks%" -T "COMMENT=%comment%" %source% -o %dest%
TOC of the extracted CD
Track | Start | Length | Start sector | End sector
---------------------------------------------------------
1 | 0:00.00 | 13:04.62 | 0 | 58861
2 | 13:04.62 | 7:06.00 | 58862 | 90811
3 | 20:10.62 | 15:00.00 | 90812 | 158311
4 | 35:10.62 | 4:55.00 | 158312 | 180436
5 | 40:05.62 | 8:51.00 | 180437 | 220261
6 | 48:56.62 | 9:22.13 | 220262 | 262424
Track 1
Filename F:\Musique Flac\[Label] HAT HUT Records\Paul Dunmall, John Adams & Mark Sanders ‎– Ghostly Thoughts (1997) [FLAC] {WHAT.CD}\01 - Misericords .wav
Pre-gap length 0:00:02.00
Peak level 92.5 %
Extraction speed 2.8 X
Track quality 99.9 %
Test CRC 9B7FB09C
Copy CRC 9B7FB09C
Accurately ripped (confidence 1) [BDB53435] (AR v1)
Copy OK
Track 2
Filename F:\Musique Flac\[Label] HAT HUT Records\Paul Dunmall, John Adams & Mark Sanders ‎– Ghostly Thoughts (1997) [FLAC] {WHAT.CD}\02 - Fred The Needle .wav
Peak level 92.6 %
Extraction speed 3.5 X
Track quality 100.0 %
Test CRC C24289E3
Copy CRC C24289E3
Accurately ripped (confidence 1) [56E65C38] (AR v1)
Copy OK
Track 3
Filename F:\Musique Flac\[Label] HAT HUT Records\Paul Dunmall, John Adams & Mark Sanders ‎– Ghostly Thoughts (1997) [FLAC] {WHAT.CD}\03 - A Bit Of Rice, Nice .wav
Peak level 92.6 %
Extraction speed 3.8 X
Track quality 100.0 %
Test CRC 14BE5B8D
Copy CRC 14BE5B8D
Accurately ripped (confidence 1) [24678CEE] (AR v1)
Copy OK
Track 4
Filename F:\Musique Flac\[Label] HAT HUT Records\Paul Dunmall, John Adams & Mark Sanders ‎– Ghostly Thoughts (1997) [FLAC] {WHAT.CD}\04 - Ghostly Thoughts .wav
Peak level 91.7 %
Extraction speed 4.2 X
Track quality 100.0 %
Test CRC 1AE2F167
Copy CRC 1AE2F167
Accurately ripped (confidence 1) [998562DD] (AR v1)
Copy OK
Track 5
Filename F:\Musique Flac\[Label] HAT HUT Records\Paul Dunmall, John Adams & Mark Sanders ‎– Ghostly Thoughts (1997) [FLAC] {WHAT.CD}\05 - Human Machines .wav
Peak level 92.9 %
Extraction speed 3.3 X
Track quality 100.0 %
Test CRC 8899CE41
Copy CRC 8899CE41
Accurately ripped (confidence 1) [E62D109E] (AR v1)
Copy OK
Track 6
Filename F:\Musique Flac\[Label] HAT HUT Records\Paul Dunmall, John Adams & Mark Sanders ‎– Ghostly Thoughts (1997) [FLAC] {WHAT.CD}\06 - Up And Down The Back .wav
Peak level 92.5 %
Extraction speed 4.1 X
Track quality 100.0 %
Test CRC 45FA3753
Copy CRC 45FA3753
Cannot be verified as accurate (confidence 1) [EAF4547A], AccurateRip returned [74158D11] (AR v2)
Copy OK
5 track(s) accurately ripped
1 track(s) could not be verified as accurate
Some tracks could not be verified as accurate
No errors occurred
End of status report
---- CUETools DB Plugin V2.1.3
[CTDB TOCID: GC9NXGIXUso2DBbKInIdL_5GSJU-] found, Submit result: GC9NXGIXUso2DBbKInIdL_5GSJU- has been confirmed
[d4c7a7dd] (1/1) Accurately ripped
==== Log checksum 56C40E37F87BEAD86196B285254E7DD8D98751DE5D72BD138BF36403BC9510C4 ====
 
.cue
REM GENRE Jazz
REM DATE 1997
REM DISCID 460DAB06
REM COMMENT "ExactAudioCopy v1.0b3"
CATALOG 0000000000000
PERFORMER "Paul Dunmall, John Adams & Mark Sanders"
TITLE "Ghostly Thoughts"
FILE "01 - Misericords .wav" WAVE
TRACK 01 AUDIO
TITLE "Misericords"
PERFORMER "Paul Dunmall, John Adams & Mark Sanders"
INDEX 01 00:00:00
FILE "02 - Fred The Needle .wav" WAVE
TRACK 02 AUDIO
TITLE "Fred The Needle"
PERFORMER "Paul Dunmall, John Adams & Mark Sanders"
INDEX 01 00:00:00
FILE "03 - A Bit Of Rice, Nice .wav" WAVE
TRACK 03 AUDIO
TITLE "A Bit Of Rice, Nice"
PERFORMER "Paul Dunmall, John Adams & Mark Sanders"
INDEX 01 00:00:00
FILE "04 - Ghostly Thoughts .wav" WAVE
TRACK 04 AUDIO
TITLE "Ghostly Thoughts"
PERFORMER "Paul Dunmall, John Adams & Mark Sanders"
INDEX 01 00:00:00
FILE "05 - Human Machines .wav" WAVE
TRACK 05 AUDIO
TITLE "Human Machines"
PERFORMER "Paul Dunmall, John Adams & Mark Sanders"
INDEX 01 00:00:00
FILE "06 - Up And Down The Back .wav" WAVE
TRACK 06 AUDIO
TITLE "Up And Down The Back"
PERFORMER "Paul Dunmall, John Adams & Mark Sanders"
INDEX 01 00:00:00

другие релизы
Any questions -> support@pro-jazz.com. По всем вопросам пишите -> support@pro-jazz.com
02:48
136
Нет комментариев. Ваш будет первым!