Вы используете незарегистрированную версию компонента "Вкладки"!

Поиск

(avant-garde) Achim Kaufmann - Double Exposure (2000), FLAC (tracks+.cue), lossless

(avant-garde) Achim Kaufmann - Double Exposure (2000), FLAC (tracks+.cue), lossless
Треклист:


Achim Kaufmann - Double Exposure (2000)

Жанр: avant-garde
Год выпуска: 2000
Издатель (лейбл):Leo Records / LR 289
Формат: FLAC (tracks+.cue)
Битрейт аудио: lossless
Продолжительность 56`44
Источник: what.cd
Achim Kaufmann (piano);
Michael Moore (reeds);
John Schroder (guitar);
John Hollenbeck (drums)

tracks

1 Carnies Kaufmann 10:23
2 Dream Logic Kaufmann 8:28
3 Marchebrisee (For Norman McLaren) Kaufmann 8:16
4 Gavia Kaufmann 3:47
5 Double Exposure Kaufmann 4:11
6 Pea Head Kaufmann 6:29
7 Proliferation Kaufmann 6:54
8 Sphericals Moore 8:12


 
.log
EAC extraction logfile from 21. December 2006, 16:48 for CD
Achim Kaufmann / Double Exposure
Used drive : LITE-ON LTR-52327S Adapter: 1 ID: 0
Read mode : Secure with NO C2, accurate stream, disable cache
Read offset correction : 6
Overread into Lead-In and Lead-Out : No
Used output format : Internal WAV Routines
44.100 Hz; 16 Bit; Stereo
Other options :
Fill up missing offset samples with silence : Yes
Delete leading and trailing silent blocks : No
Native Win32 interface for Win NT & 2000
Track 1
Filename E:\Just ripped\Achim Kaufmann - Double Exposure\01 - Carnies.wav
Pre-gap length 0:00:02.00
Peak level 78.5 %
Track quality 100.0 %
Test CRC 4D96F5E6
Copy CRC 4D96F5E6
Copy OK
Track 2
Filename E:\Just ripped\Achim Kaufmann - Double Exposure\02 - Dream Logic.wav
Pre-gap length 0:00:04.00
Peak level 76.9 %
Track quality 100.0 %
Test CRC 540F930C
Copy CRC 540F930C
Copy OK
Track 3
Filename E:\Just ripped\Achim Kaufmann - Double Exposure\03 - Marchebrisee (for Norman McLaren).wav
Pre-gap length 0:00:04.00
Peak level 77.3 %
Track quality 100.0 %
Test CRC A155F16C
Copy CRC A155F16C
Copy OK
Track 4
Filename E:\Just ripped\Achim Kaufmann - Double Exposure\04 - Gavia.wav
Pre-gap length 0:00:04.00
Peak level 57.0 %
Track quality 100.0 %
Test CRC 37DD16FF
Copy CRC 37DD16FF
Copy OK
Track 5
Filename E:\Just ripped\Achim Kaufmann - Double Exposure\05 - Double Exposure.wav
Pre-gap length 0:00:04.00
Peak level 78.1 %
Track quality 100.0 %
Test CRC 0CFB08CC
Copy CRC 0CFB08CC
Copy OK
Track 6
Filename E:\Just ripped\Achim Kaufmann - Double Exposure\06 - Pea Head.wav
Peak level 76.6 %
Track quality 100.0 %
Test CRC 0A04F414
Copy CRC 0A04F414
Copy OK
Track 7
Filename E:\Just ripped\Achim Kaufmann - Double Exposure\07 - Proliferation.wav
Pre-gap length 0:00:04.00
Peak level 57.3 %
Track quality 100.0 %
Test CRC 95A0A90A
Copy CRC 95A0A90A
Copy OK
Track 8
Filename E:\Just ripped\Achim Kaufmann - Double Exposure\08 - Sphericals.wav
Pre-gap length 0:00:04.00
Peak level 74.9 %
Track quality 100.0 %
Test CRC 2592C9F1
Copy CRC 2592C9F1
Copy OK
No errors occured
End of status report
 
.cue
REM GENRE Jazz
REM DATE 2000
REM DISCID 6C0D4C08
REM COMMENT "ExactAudioCopy v0.95b4"
PERFORMER "Achim Kaufmann"
TITLE "Double Exposure"
FILE "01 - Carnies.wav" WAVE
TRACK 01 AUDIO
TITLE "Carnies"
PERFORMER "Achim Kaufmann"
INDEX 01 00:00:00
TRACK 02 AUDIO
TITLE "Dream Logic"
PERFORMER "Achim Kaufmann"
INDEX 00 10:19:73
FILE "02 - Dream Logic.wav" WAVE
INDEX 01 00:00:00
TRACK 03 AUDIO
TITLE "Marchebrisee (for Norman McLaren)"
PERFORMER "Achim Kaufmann"
INDEX 00 08:24:47
FILE "03 - Marchebrisee (for Norman McLaren).wav" WAVE
INDEX 01 00:00:00
TRACK 04 AUDIO
TITLE "Gavia"
PERFORMER "Achim Kaufmann"
INDEX 00 08:12:13
FILE "04 - Gavia.wav" WAVE
INDEX 01 00:00:00
TRACK 05 AUDIO
TITLE "Double Exposure"
PERFORMER "Achim Kaufmann"
INDEX 00 03:43:36
FILE "05 - Double Exposure.wav" WAVE
INDEX 01 00:00:00
FILE "06 - Pea Head.wav" WAVE
TRACK 06 AUDIO
TITLE "Pea Head"
PERFORMER "Achim Kaufmann"
INDEX 01 00:00:00
TRACK 07 AUDIO
TITLE "Proliferation"
PERFORMER "Achim Kaufmann"
INDEX 00 06:25:57
FILE "07 - Proliferation.wav" WAVE
INDEX 01 00:00:00
TRACK 08 AUDIO
TITLE "Sphericals"
PERFORMER "Achim Kaufmann"
INDEX 00 06:50:68
FILE "08 - Sphericals.wav" WAVE
INDEX 01 00:00:00

другие релизы
Any questions -> support@pro-jazz.com. По всем вопросам пишите -> support@pro-jazz.com
02:49
161
Нет комментариев. Ваш будет первым!