Вы используете незарегистрированную версию компонента "Вкладки"!

Поиск

(Free Improvisation) Paul Bley - Furio Di Castri - Tony Oxley - Chaos - 1998, FLAC (tracks+.cue) lossless

Треклист:
Paul Bley - Furio Di Castri - Tony Oxley - Chaos
Жанр: Free Improvisation
Страна-производитель диска: Italy
Год издания диска: 1998
Издатель (лейбл): Soul Note Records
Номер по каталогу: SN 121 285-2
Страна: Italy
Аудио кодек: FLAC (*.flac)
Тип рипа: tracks+.cue
Битрейт аудио: lossless
Продолжительность: 59:17
Источник (релизер): собственный рип с оригинального диска.
Наличие сканов в содержимом раздачи: да
Треклист:
01. CHAOS (PIANO SOLO) 4:53
02. TOUCHING BASS [BASS SOLO] 3:47
03. MODULATING [DRUMS SOLO] 4:37
04. SOFT TOUCH (PIANO,DRUMS) 5:58
05. POETIC JUSTICE (TRIO) 6:36
06. INTERPERCUSSION 1 [DRUMS SOLO] 1:51
07. TOUCH CONTROL (TRIO) 3:22
08. TURNHAM BEY (PIANO SOLO) 4:58
09. STREET WISE (TRIO) 6:07
10. BOW OUT (DRUMS SOLO) 4:20
11. STARTING OVER (TRIO) 5:16
12. INTERPERCUSSION 2 (DRUMS SOLO) 3:34
13. TEMPLATE (TRIO) 4:00
 
Лог создания рипа
Exact Audio Copy V0.99 prebeta 5 from 4. May 2009
EAC extraction logfile from 18. December 2010, 10:58
Paul Bley - Furio di Castri - Tony Oxley / Chaos
Used drive : TSSTcorpCDDVDW SH-S222A Adapter: 1 ID: 0
Read mode : Secure
Utilize accurate stream : Yes
Defeat audio cache : Yes
Make use of C2 pointers : No
Read offset correction : 6
Overread into Lead-In and Lead-Out : No
Fill up missing offset samples with silence : Yes
Delete leading and trailing silent blocks : No
Null samples used in CRC calculations : Yes
Used interface : Native Win32 interface for Win NT & 2000
Gap handling : Appended to previous track
Used output format : User Defined Encoder
Selected bitrate : 768 kBit/s
Quality : High
Add ID3 tag : No
Command line compressor : C:\tool\Audio\Exact Audio Copy\FLAC\FLAC.EXE
Additional command line options : -V -8 -T "ARTIST=%a" -T "TITLE=%t" -T "ALBUM=%g" -T "TRACKNUMBER=%n" -T "GENRE=%m" %s
TOC of the extracted CD
Track | Start | Length | Start sector | End sector
---------------------------------------------------------
1 | 0:00.00 | 4:51.15 | 0 | 21839
2 | 4:51.15 | 3:47.37 | 21840 | 38901
3 | 8:38.52 | 4:37.63 | 38902 | 59739
4 | 13:16.40 | 5:58.42 | 59740 | 86631
5 | 19:15.07 | 6:36.23 | 86632 | 116354
6 | 25:51.30 | 1:51.40 | 116355 | 124719
7 | 27:42.70 | 3:22.22 | 124720 | 139891
8 | 31:05.17 | 4:58.33 | 139892 | 162274
9 | 36:03.50 | 6:07.50 | 162275 | 189849
10 | 42:11.25 | 4:20.02 | 189850 | 209351
11 | 46:31.27 | 5:16.40 | 209352 | 233091
12 | 51:47.67 | 3:34.50 | 233092 | 249191
13 | 55:22.42 | 4:00.20 | 249192 | 267211
Track 1
Filename C:\! RUTRACKER\ru up\Paul Bley - Chaos\01 - Chaos.wav
Pre-gap length 0:00:02.00
Peak level 55.8 %
Track quality 99.9 %
Test CRC DDD0C4C7
Copy CRC DDD0C4C7
Accurately ripped (confidence 1) [161CE5DA]
Copy OK
Track 2
Filename C:\! RUTRACKER\ru up\Paul Bley - Chaos\02 - Touching Bass.wav
Peak level 41.3 %
Track quality 100.0 %
Test CRC 4E2585F3
Copy CRC 4E2585F3
Accurately ripped (confidence 1) [009EACA7]
Copy OK
Track 3
Filename C:\! RUTRACKER\ru up\Paul Bley - Chaos\03 - Moduklating.wav
Peak level 100.0 %
Track quality 100.0 %
Test CRC A16F23D2
Copy CRC A16F23D2
Accurately ripped (confidence 1) [BAC56C67]
Copy OK
Track 4
Filename C:\! RUTRACKER\ru up\Paul Bley - Chaos\04 - Soft Touch.wav
Peak level 100.0 %
Track quality 100.0 %
Test CRC 0A456E68
Copy CRC 0A456E68
Accurately ripped (confidence 1) [C25A7E0D]
Copy OK
Track 5
Filename C:\! RUTRACKER\ru up\Paul Bley - Chaos\05 - Poetic Justice.wav
Peak level 77.0 %
Track quality 100.0 %
Test CRC 0D62603C
Copy CRC 0D62603C
Accurately ripped (confidence 1) [498FA63D]
Copy OK
Track 6
Filename C:\! RUTRACKER\ru up\Paul Bley - Chaos\06 - Interpercussion.wav
Peak level 99.9 %
Track quality 100.0 %
Test CRC A612BA5E
Copy CRC A612BA5E
Accurately ripped (confidence 1) [E51EBC8E]
Copy OK
Track 7
Filename C:\! RUTRACKER\ru up\Paul Bley - Chaos\07 - Touch Control.wav
Peak level 100.0 %
Track quality 100.0 %
Test CRC 12570993
Copy CRC 12570993
Accurately ripped (confidence 1) [C3EF29ED]
Copy OK
Track 8
Filename C:\! RUTRACKER\ru up\Paul Bley - Chaos\08 - Turnham Bey.wav
Peak level 58.9 %
Track quality 100.0 %
Test CRC 98222C36
Copy CRC 98222C36
Accurately ripped (confidence 1) [CD2AD3F5]
Copy OK
Track 9
Filename C:\! RUTRACKER\ru up\Paul Bley - Chaos\09 - Street Wise.wav
Peak level 100.0 %
Track quality 100.0 %
Test CRC 5F1F2915
Copy CRC 5F1F2915
Accurately ripped (confidence 1) [10636053]
Copy OK
Track 10
Filename C:\! RUTRACKER\ru up\Paul Bley - Chaos\10 - Blow Out.wav
Peak level 92.3 %
Track quality 100.0 %
Test CRC 33327B52
Copy CRC 33327B52
Accurately ripped (confidence 1) [E91A3885]
Copy OK
Track 11
Filename C:\! RUTRACKER\ru up\Paul Bley - Chaos\11 - Starting Over.wav
Peak level 81.2 %
Track quality 100.0 %
Test CRC 005A658A
Copy CRC 005A658A
Accurately ripped (confidence 1) [8A2884F0]
Copy OK
Track 12
Filename C:\! RUTRACKER\ru up\Paul Bley - Chaos\12 - Interpercussion 2.wav
Peak level 100.0 %
Track quality 100.0 %
Test CRC E95B16B2
Copy CRC E95B16B2
Accurately ripped (confidence 1) [0C1A1B15]
Copy OK
Track 13
Filename C:\! RUTRACKER\ru up\Paul Bley - Chaos\13 - Template.wav
Peak level 99.8 %
Track quality 100.0 %
Test CRC 921E98EF
Copy CRC 921E98EF
Accurately ripped (confidence 1) [32CE20FB]
Copy OK
All tracks accurately ripped
No errors occurred
End of status report
 
Содержание индексной карты (.CUE)
REM GENRE Jazz
REM DATE 1994
REM DISCID BB0DEA0D
REM COMMENT "ExactAudioCopy v0.99pb5"
PERFORMER "Paul Bley - Furio di Castri - Tony Oxley"
TITLE "Chaos"
FILE "01 - Chaos.wav" WAVE
TRACK 01 AUDIO
TITLE "Chaos"
PERFORMER "Paul Bley - Furio di Castri - Tony Oxley"
INDEX 01 00:00:00
FILE "02 - Touching Bass.wav" WAVE
TRACK 02 AUDIO
TITLE "Touching Bass"
PERFORMER "Paul Bley - Furio di Castri - Tony Oxley"
INDEX 01 00:00:00
FILE "03 - Moduklating.wav" WAVE
TRACK 03 AUDIO
TITLE "Moduklating"
PERFORMER "Paul Bley - Furio di Castri - Tony Oxley"
INDEX 01 00:00:00
FILE "04 - Soft Touch.wav" WAVE
TRACK 04 AUDIO
TITLE "Soft Touch"
PERFORMER "Paul Bley - Furio di Castri - Tony Oxley"
INDEX 01 00:00:00
FILE "05 - Poetic Justice.wav" WAVE
TRACK 05 AUDIO
TITLE "Poetic Justice"
PERFORMER "Paul Bley - Furio di Castri - Tony Oxley"
INDEX 01 00:00:00
FILE "06 - Interpercussion 1.wav" WAVE
TRACK 06 AUDIO
TITLE "Interpercussion 1"
PERFORMER "Paul Bley - Furio di Castri - Tony Oxley"
INDEX 01 00:00:00
FILE "07 - Touch Control.wav" WAVE
TRACK 07 AUDIO
TITLE "Touch Control"
PERFORMER "Paul Bley - Furio di Castri - Tony Oxley"
INDEX 01 00:00:00
FILE "08 - Turnham Bey.wav" WAVE
TRACK 08 AUDIO
TITLE "Turnham Bey"
PERFORMER "Paul Bley - Furio di Castri - Tony Oxley"
INDEX 01 00:00:00
FILE "09 - Street Wise.wav" WAVE
TRACK 09 AUDIO
TITLE "Street Wise"
PERFORMER "Paul Bley - Furio di Castri - Tony Oxley"
INDEX 01 00:00:00
FILE "10 - Blow Out.wav" WAVE
TRACK 10 AUDIO
TITLE "Blow Out"
PERFORMER "Paul Bley - Furio di Castri - Tony Oxley"
INDEX 01 00:00:00
FILE "11 - Starting Over.wav" WAVE
TRACK 11 AUDIO
TITLE "Starting Over"
PERFORMER "Paul Bley - Furio di Castri - Tony Oxley"
INDEX 01 00:00:00
FILE "12 - Interpercussion 2.wav" WAVE
TRACK 12 AUDIO
TITLE "Interpercussion 2"
PERFORMER "Paul Bley - Furio di Castri - Tony Oxley"
INDEX 01 00:00:00
FILE "13 - Template.wav" WAVE
TRACK 13 AUDIO
TITLE "Template"
PERFORMER "Paul Bley - Furio di Castri - Tony Oxley"
INDEX 01 00:00:00
Доп. информация: Recorded on March 28 and 29, 1994 at MuRec Studio, Milano
Engineer: Paolo Falascone
Mastered at PhonoComp, Tribiano, Milano
Engineer: Aldo Borrelli
 
Об альбоме (сборнике)
This is a fascinating set. Although the instrumentation (pianist Paul Bley, bassist Furio DiCastri and Tony Oxley on drums and percussion) may lead one to expect a conventional piano trio, in reality the 13 selections consist of four drum solos, one unaccompanied bass piece, two piano solos, a piano-drums duet and just five trio numbers. Bley's use of space and dynamics gave free jazz pianists in the 1960s an alternative approach to Cecil Taylor; here he sounds quite creative and his opening "Chaos" is a near-classic. DiCastri, who is very inventive on his unaccompanied "Touching Bass," is intuitive and displays a huge tone. However, it is Oxley who often steals one's attention. His wide array of equipment makes one think that he raided a junkyard, and his four solos are full of color rather than technique, surprises rather than swing. While many drum/percussion solos lose a great deal when the visual element is not present, Tony Oxley's transfer very well to disc. This set of concise free improvisations is highly recommended to open-minded listeners.
 
Состав
Paul Bley - piano
Furio Di Castri - bass
Tony Oxley - drums, percussion
Any questions -> support@pro-jazz.com. По всем вопросам пишите -> support@pro-jazz.com
06:54
141
Нет комментариев. Ваш будет первым!