Вы используете незарегистрированную версию компонента "Вкладки"!

Поиск

(Avant-Garde / Free Improvisation / Free Jazz) Paola Prestini - Body Maps {Tzadik} - 2008, FLAC (tracks+.cue) lossless

(Avant-Garde / Free Improvisation / Free Jazz) Paola Prestini - Body Maps {Tzadik} - 2008, FLAC (tracks+.cue) lossless
Треклист:
Paola Prestini - Body Maps
Жанр: Avant-Garde / Free Improvisation / Free Jazz
Страна-производитель диска: USA
Год издания диска: 2008
Издатель (лейбл): Tzadik
Номер по каталогу: TZ 8060
Аудио кодек: FLAC (*.flac)
Тип рипа: tracks+.cue
Битрейт аудио: lossless
Продолжительность: 56:28
Источник (релизер): net (grasprelease)
Наличие сканов в содержимом раздачи: да (они у меня были раньше ... в mp3 папке)))
Треклист:
1. As Sleep Befell
2. Last Hymn
3. Limpopo Songs
4. Inngerutit
5. Nightsong
6. Body Maps
Personnel:
Paola Prestini: Electronics, Vocals. Alto Choir
Stephen Gosling: Piano
Hila Plitmann: Soprano, Soprano Choir
Samuel Z. Solomon: Marimba
Mark Vanderpoel: Electric Bass
VisionIntoArt Ensemble
Erik Carlson: Violin
Helga Davis: Vocalist
Richard Mannoia: Clarinet, Tenor Saxophone
Tawnya Popoff: Viola
Pablo Rieppi: Percussion, Vibraphone
Jeffrey Zeigler: Celli
 
Лог создания рипа (EAC Log)
Exact Audio Copy V0.99 prebeta 4 from 23. January 2008
EAC extraction logfile from 16. January 2009, 13:56
Paola Prestini / Body Maps
Used drive : ASUS DVD-E616P2 Adapter: 0 ID: 0
Read mode : Secure
Utilize accurate stream : Yes
Defeat audio cache : Yes
Make use of C2 pointers : No
Read offset correction : 738
Overread into Lead-In and Lead-Out : No
Fill up missing offset samples with silence : Yes
Delete leading and trailing silent blocks : No
Null samples used in CRC calculations : Yes
Used interface : Installed external ASPI interface
Gap handling : Appended to previous track
Used output format : User Defined Encoder
Selected bitrate : 768 kBit/s
Quality : High
Add ID3 tag : No
Command line compressor : C:\Program Files\CODEC\Flac-112a\flac.exe
Additional command line options : -V -8 -T "artist=%a" -T "title=%t" -T "album=%g" -T "date=%y" -T "tracknumber=%n" -T "genre=%m" %s
TOC of the extracted CD
Track | Start | Length | Start sector | End sector
---------------------------------------------------------
1 | 0:00.00 | 13:27.28 | 0 | 60552
2 | 13:27.28 | 6:33.62 | 60553 | 90089
3 | 20:01.15 | 9:12.71 | 90090 | 131560
4 | 29:14.11 | 5:21.59 | 131561 | 155694
5 | 34:35.70 | 6:07.42 | 155695 | 183261
6 | 40:43.37 | 15:45.17 | 183262 | 254153
Track 1
Filename M:\Musique Lossless\#New rip\Paola Prestini - Body Maps - 2008\01 - As Sleep Befell.wav
Pre-gap length 0:00:02.00
Peak level 96.6 %
Track quality 100.0 %
Test CRC 90437A2A
Copy CRC 90437A2A
Track not present in AccurateRip database
Copy OK
Track 2
Filename M:\Musique Lossless\#New rip\Paola Prestini - Body Maps - 2008\02 - Last Hymn.wav
Pre-gap length 0:00:01.58
Peak level 96.6 %
Track quality 99.9 %
Test CRC 33FC5751
Copy CRC 33FC5751
Track not present in AccurateRip database
Copy OK
Track 3
Filename M:\Musique Lossless\#New rip\Paola Prestini - Body Maps - 2008\03 - Limpopo Songs.wav
Pre-gap length 0:00:02.58
Peak level 96.6 %
Track quality 100.0 %
Test CRC BC031A2B
Copy CRC BC031A2B
Track not present in AccurateRip database
Copy OK
Track 4
Filename M:\Musique Lossless\#New rip\Paola Prestini - Body Maps - 2008\04 - Inngerutit.wav
Peak level 89.6 %
Track quality 100.0 %
Test CRC 378C9296
Copy CRC 378C9296
Track not present in AccurateRip database
Copy OK
Track 5
Filename M:\Musique Lossless\#New rip\Paola Prestini - Body Maps - 2008\05 - Nightsong.wav
Peak level 96.6 %
Track quality 100.0 %
Test CRC D611E80A
Copy CRC D611E80A
Track not present in AccurateRip database
Copy OK
Track 6
Filename M:\Musique Lossless\#New rip\Paola Prestini - Body Maps - 2008\06 - Body Maps.wav
Pre-gap length 0:00:03.60
Peak level 96.6 %
Track quality 100.0 %
Test CRC 7A3E1BC9
Copy CRC 7A3E1BC9
Track not present in AccurateRip database
Copy OK
None of the tracks are present in the AccurateRip database
No errors occurred
End of status report
 
Содержание индексной карты (.CUE)
REM GENRE Classical
REM DATE 2008
REM DISCID 4B0D3C06
REM COMMENT "ExactAudioCopy v0.99pb4"
PERFORMER "Paola Prestini"
TITLE "Body Maps"
FILE "Paola Prestini - Body Maps - 2008\01 - As Sleep Befell.wav" WAVE
TRACK 01 AUDIO
TITLE "As Sleep Befell"
PERFORMER "Paola Prestini"
INDEX 01 00:00:00
TRACK 02 AUDIO
TITLE "Last Hymn"
PERFORMER "Paola Prestini"
INDEX 00 13:25:59
FILE "Paola Prestini - Body Maps - 2008\02 - Last Hymn.wav" WAVE
INDEX 01 00:00:00
TRACK 03 AUDIO
TITLE "Limpopo Songs"
PERFORMER "Paola Prestini"
INDEX 00 06:31:18
FILE "Paola Prestini - Body Maps - 2008\03 - Limpopo Songs.wav" WAVE
INDEX 01 00:00:00
FILE "Paola Prestini - Body Maps - 2008\04 - Inngerutit.wav" WAVE
TRACK 04 AUDIO
TITLE "Inngerutit"
PERFORMER "Paola Prestini"
INDEX 01 00:00:00
FILE "Paola Prestini - Body Maps - 2008\05 - Nightsong.wav" WAVE
TRACK 05 AUDIO
TITLE "Nightsong"
PERFORMER "Paola Prestini"
INDEX 01 00:00:00
TRACK 06 AUDIO
TITLE "Body Maps"
PERFORMER "Paola Prestini"
INDEX 00 06:03:72
FILE "Paola Prestini - Body Maps - 2008\06 - Body Maps.wav" WAVE
INDEX 01 00:00:00
 
Tzadik
Paola Prestini is a brilliant young composer born in Italy and raised in Mexico. A graduate of Julliard, she is the founder and director of the award-winning interdisciplinary performing collective VisionIntoArt. Her work is sensual and heartfelt, touching upon minimalism, film soundtracks and the American avant-garde tradition. Her first cd presents a stunning group of compositions for multiple celli, voices and percussion, clarinets, electronics, a moody piece for solo piano and a new work composed expressly for this release. Absolutely beautiful music by a fresh young compositional voice!
По всем вопросам пишите личное сообщение пользователю M0p94ok.
06:55
131
Нет комментариев. Ваш будет первым!