Поиск

(Free Improvisation) Oliver Lake Quartet - Clevont Fitzhubert - 1993, FLAC (tracks+.cue), lossless

Треклист:
Oliver Lake Quartet - Clevont Fitzhubert
Жанр: Free Improvisation
Страна-производитель диска: Italy
Год издания диска: 1993
Издатель (лейбл): Black Saint Records
Номер по каталогу: BSR 120 054-2
Аудиокодек: FLAC (*.flac)
Тип рипа: tracks+.cue
Битрейт аудио: lossless
Продолжительность: 37:54
Источник (релизер): собственный рип с оригинального диска.
Наличие сканов в содержимом раздачи: да
Треклист:
01. November '80 8:26
02. Sop 4:15
03. Clevont Fitzhubert 7:39
04. King 8:11
05. Tap Dancer 4:37
06. Hmbay 4:23
 
Лог создания рипа
Exact Audio Copy V0.99 prebeta 5 from 4. May 2009
EAC extraction logfile from 24. July 2011, 8:31
Oliver Lake Quartet / Clevont Fitzhubert (A Good Friend Of Mine)
Used drive : TSSTcorpCDDVDW SH-S222A Adapter: 1 ID: 0
Read mode : Secure
Utilize accurate stream : Yes
Defeat audio cache : Yes
Make use of C2 pointers : No
Read offset correction : 6
Overread into Lead-In and Lead-Out : No
Fill up missing offset samples with silence : Yes
Delete leading and trailing silent blocks : No
Null samples used in CRC calculations : Yes
Used interface : Installed external ASPI interface
Gap handling : Appended to previous track
Used output format : User Defined Encoder
Selected bitrate : 768 kBit/s
Quality : High
Add ID3 tag : No
Command line compressor : C:\Tool\Compress\FLAC\flac.exe
Additional command line options : -8 -V -T "ARTIST=%a" -T "TITLE=%t" -T "ALBUM=%g" -T "DATE=%y" -T "TRACKNUMBER=%n" -T "TOTALTRACKS=%x" -T "GENRE=%m" -T "ALBUM ARTIST=%v" -T "COMMENT=EAC V0.99 prebeta 5, Secure Mode, Test & Copy, AccurateRip, FLAC -8" %s
TOC of the extracted CD
Track | Start | Length | Start sector | End sector
---------------------------------------------------------
1 | 0:00.33 | 8:29.37 | 33 | 38244
2 | 8:29.70 | 4:19.58 | 38245 | 57727
3 | 12:49.53 | 7:46.27 | 57728 | 92704
4 | 20:36.05 | 8:14.63 | 92705 | 129817
5 | 28:50.68 | 4:41.40 | 129818 | 150932
6 | 33:32.33 | 4:26.00 | 150933 | 170882
Track 1
Filename C:\! UPLOAD\Oliver Lake Quartet - Clevont Fitzhubert (1993) [FLAC] {Black Saint}\01 - November 80.wav
Pre-gap length 0:00:02.44
Peak level 94.6 %
Track quality 100.0 %
Test CRC B9632008
Copy CRC B9632008
Accurately ripped (confidence 1) [95973DAF]
Copy OK
Track 2
Filename C:\! UPLOAD\Oliver Lake Quartet - Clevont Fitzhubert (1993) [FLAC] {Black Saint}\02 - Sop.wav
Peak level 89.5 %
Track quality 100.0 %
Test CRC DF0724EF
Copy CRC DF0724EF
Accurately ripped (confidence 1) [F0E74B59]
Copy OK
Track 3
Filename C:\! UPLOAD\Oliver Lake Quartet - Clevont Fitzhubert (1993) [FLAC] {Black Saint}\03 - Clevont Fitzhubert.wav
Peak level 89.6 %
Track quality 100.0 %
Test CRC 4258425E
Copy CRC 4258425E
Accurately ripped (confidence 1) [1F569E42]
Copy OK
Track 4
Filename C:\! UPLOAD\Oliver Lake Quartet - Clevont Fitzhubert (1993) [FLAC] {Black Saint}\04 - King.wav
Peak level 89.6 %
Track quality 100.0 %
Test CRC 229C9FCD
Copy CRC 229C9FCD
Accurately ripped (confidence 1) [CB14B1D6]
Copy OK
Track 5
Filename C:\! UPLOAD\Oliver Lake Quartet - Clevont Fitzhubert (1993) [FLAC] {Black Saint}\05 - Tap Dancer.wav
Peak level 77.5 %
Track quality 100.0 %
Test CRC 0E15E11F
Copy CRC 0E15E11F
Accurately ripped (confidence 1) [5588042F]
Copy OK
Track 6
Filename C:\! UPLOAD\Oliver Lake Quartet - Clevont Fitzhubert (1993) [FLAC] {Black Saint}\06 - Hmbay.wav
Peak level 89.5 %
Track quality 99.9 %
Test CRC C259B450
Copy CRC C259B450
Accurately ripped (confidence 1) [AEDD7DEE]
Copy OK
All tracks accurately ripped
No errors occurred
End of status report
 
Содержание индексной карты (.CUE)
REM GENRE Jazz
REM DATE 1981
REM DISCID 3A08E606
REM COMMENT "ExactAudioCopy v0.99pb5"
PERFORMER "Oliver Lake Quartet"
TITLE "Clevont Fitzhubert (A Good Friend Of Mine)"
FILE "01 - November 80.wav" WAVE
TRACK 01 AUDIO
TITLE "November 80"
PERFORMER "Oliver Lake Quartet"
PREGAP 00:00:33
INDEX 01 00:00:00
FILE "02 - Sop.wav" WAVE
TRACK 02 AUDIO
TITLE "Sop"
PERFORMER "Oliver Lake Quartet"
INDEX 01 00:00:00
FILE "03 - Clevont Fitzhubert.wav" WAVE
TRACK 03 AUDIO
TITLE "Clevont Fitzhubert"
PERFORMER "Oliver Lake Quartet"
INDEX 01 00:00:00
FILE "04 - King.wav" WAVE
TRACK 04 AUDIO
TITLE "King"
PERFORMER "Oliver Lake Quartet"
INDEX 01 00:00:00
FILE "05 - Tap Dancer.wav" WAVE
TRACK 05 AUDIO
TITLE "Tap Dancer"
PERFORMER "Oliver Lake Quartet"
INDEX 01 00:00:00
FILE "06 - Hmbay.wav" WAVE
TRACK 06 AUDIO
TITLE "Hmbay"
PERFORMER "Oliver Lake Quartet"
INDEX 01 00:00:00
Доп. информация:
Recorded April 13 & 14, 1981 at Barigozzi Studios, Milano
 
Об альбоме (сборнике)
Altoist Oliver Lake (tripling on soprano and flute), trumpeter Baikida Carroll, pianist Donald Smith and drummer Pheeroan akLaff engage in fairly free group improvisations during this consistently stimulating set. The themes (five by Lake and one by Carroll) set the moods of the pieces, and the group takes it from there, sometimes going in surprising directions. Worth several listens. ~~ by Scott Yanow
 
Состав
Oliver Lake - saxophones, flute
Pheeroan Ak Laff - drums
Baikida Carroll - trumpet, flugelhorn
Donald Smith - piano
По всем вопросам пишите личное сообщение пользователю M0p94ok.
15:38
208
Нет комментариев. Ваш будет первым!