Вы используете незарегистрированную версию компонента "Вкладки"!

Поиск

(Contemporary Jazz) Thomas Gustafson - T.G. Evil Orchestra (Ray Anderson, Nguyen Le, Jon Balke, Johan Granstrom, Audun Kleive) - 1999, FLAC (image+.cue), lossless

Треклист:
Thomas Gustafson / T.G. Evil Orchestra
Жанр: Contemporary Jazz
Страна-производитель диска: Sweden
Год издания диска: 1999
Издатель (лейбл): Dragon
Номер по каталогу: 330
Аудиокодек: FLAC (*.flac)
Тип рипа: image+.cue
Битрейт аудио: lossless
Продолжительность: 71:48
Источник (релизер): cd
Наличие сканов в содержимом раздачи: нет
Треклист:
1 Manvarv (Lunation) 4:27
2 Forfluten Framtid (Past Future) 6:07
3 Big Bang 7:39
4 Looping 3:44
5 Cesium 133 8:26
6 Overlevnad (Survival) 3:11
7 Skapelsen (The Creation) 9:17
8 Viss Riktning (Certain Direction) 6:11
9 Flyg Ande (Flying Spirit) 6:23
10 Aldrande (Ageing) Gustafson 4:31
11 Uppenbar Existens (Obvious Being) 6:22
12 Levitation 5:24
 
Лог создания рипа
Exact Audio Copy V1.0 beta 2 from 29. April 2011
EAC extraction logfile from 2. August 2011, 19:51
Thomas Gustafson / T.G. Evil Orchestra
Used drive : Optiarc DVD RW AD-7170A Adapter: 0 ID: 0
Read mode : Secure
Utilize accurate stream : Yes
Defeat audio cache : Yes
Make use of C2 pointers : No
Read offset correction : 48
Overread into Lead-In and Lead-Out : No
Fill up missing offset samples with silence : Yes
Delete leading and trailing silent blocks : No
Null samples used in CRC calculations : Yes
Used interface : Native Win32 interface for Win NT & 2000
Used output format : User Defined Encoder
Selected bitrate : 320 kBit/s
Quality : High
Add ID3 tag : No
Command line compressor : C:\Program Files\Exact Audio Copy\Flac\flac.exe
Additional command line options : -V -8 -T "Date=%year%" -T "Genre=%genre%" %source%
TOC of the extracted CD
Track | Start | Length | Start sector | End sector
---------------------------------------------------------
1 | 0:00.00 | 4:27.60 | 0 | 20084
2 | 4:27.60 | 6:07.17 | 20085 | 47626
3 | 10:35.02 | 7:39.00 | 47627 | 82051
4 | 18:14.02 | 3:44.55 | 82052 | 98906
5 | 21:58.57 | 8:26.08 | 98907 | 136864
6 | 30:24.65 | 3:11.62 | 136865 | 151251
7 | 33:36.52 | 9:17.03 | 151252 | 193029
8 | 42:53.55 | 6:11.30 | 193030 | 220884
9 | 49:05.10 | 6:23.62 | 220885 | 249671
10 | 55:28.72 | 4:31.33 | 249672 | 270029
11 | 60:00.30 | 6:22.00 | 270030 | 298679
12 | 66:22.30 | 5:24.15 | 298680 | 322994
Range status and errors
Selected range
Filename C:\ЕАС\Thomas Gustafson - T.G. Evil Orchestra.wav
Peak level 100.0 %
Extraction speed 2.2 X
Range quality 99.9 %
Test CRC 717402D1
Copy CRC 717402D1
Copy OK
No errors occurred
AccurateRip summary
Track 1 not present in database
Track 2 not present in database
Track 3 not present in database
Track 4 not present in database
Track 5 not present in database
Track 6 not present in database
Track 7 not present in database
Track 8 not present in database
Track 9 not present in database
Track 10 not present in database
Track 11 not present in database
Track 12 not present in database
None of the tracks are present in the AccurateRip database
End of status report
==== Log checksum 6307196AC4CD700124AC4975859CBB4B42DBE19CFF8885FCAEAF4515102E312C ====
 
Содержание индексной карты (.CUE)
REM GENRE "Contemporary Jazz"
REM DATE 1997
REM DISCID AA10D20C
REM COMMENT "ExactAudioCopy v1.0b2"
PERFORMER "Thomas Gustafson"
TITLE "T.G. Evil Orchestra"
FILE "Thomas Gustafson - T.G. Evil Orchestra.flac" WAVE
TRACK 01 AUDIO
TITLE "Manvarv (Lunation)"
PERFORMER "Thomas Gustafson"
ISRC SEPUC9828010
INDEX 01 00:00:00
TRACK 02 AUDIO
TITLE "Forfluten framtid (Past Future)"
PERFORMER "Thomas Gustafson"
ISRC SEPUC9828020
INDEX 01 04:27:60
TRACK 03 AUDIO
TITLE "Big Bang"
PERFORMER "Thomas Gustafson"
ISRC SEPUC9828030
INDEX 00 10:32:73
INDEX 01 10:35:02
TRACK 04 AUDIO
TITLE "Looping"
PERFORMER "Thomas Gustafson"
ISRC SEPUC9828040
INDEX 00 18:08:48
INDEX 01 18:14:02
TRACK 05 AUDIO
TITLE "Cesium 133"
PERFORMER "Thomas Gustafson"
ISRC SEPUC9828050
INDEX 01 21:58:57
TRACK 06 AUDIO
TITLE "Overlevnad (Survival)"
PERFORMER "Thomas Gustafson"
ISRC SEPUC9828060
INDEX 00 30:21:48
INDEX 01 30:24:65
TRACK 07 AUDIO
TITLE "Skapelsen (The Creation)"
PERFORMER "Thomas Gustafson"
ISRC SEPUC9828070
INDEX 01 33:36:52
TRACK 08 AUDIO
TITLE "Viss riktning (Certain Direction)"
PERFORMER "Thomas Gustafson"
ISRC SEPUC9828080
INDEX 00 42:48:10
INDEX 01 42:53:55
TRACK 09 AUDIO
TITLE "Flyg ande (Flying Spirit)"
PERFORMER "Thomas Gustafson"
ISRC SEPUC9828090
INDEX 00 49:04:10
INDEX 01 49:05:10
TRACK 10 AUDIO
TITLE "Aldrande (Ageing)"
PERFORMER "Thomas Gustafson"
ISRC SEPUC9828100
INDEX 01 55:28:72
TRACK 11 AUDIO
TITLE "Uppenbar existens (Obvious Being)"
PERFORMER "Thomas Gustafson"
ISRC SEPUC9828110
INDEX 00 59:57:53
INDEX 01 60:00:30
TRACK 12 AUDIO
TITLE "Levitation"
PERFORMER "Thomas Gustafson"
ISRC SEPUC9828120
INDEX 00 66:16:38
INDEX 01 66:22:30
Доп. информация: Recording Date: Jan 3, 1997 - Jan 6, 1997
 
Состав
Ray Anderson Trombone
Jon Balke Keyboards
Johan Granstrom Bass
Thomas Gustafson Composer, Saxophone
Audun Kleive Drums
Nguyen Le Guitar
По всем вопросам пишите личное сообщение пользователю M0p94ok.
15:37
294
Нет комментариев. Ваш будет первым!