Вы используете незарегистрированную версию компонента "Вкладки"!

Поиск

(Free Improvisation) Oles Brothers with Rob Brown - Live at SJC - 2008, FLAC (tracks+.cue) lossless

Треклист:
Oles Brothers with Rob Brown - Live at SJC
Жанр: Free Improvisation
Страна-производитель диска: Poland
Год издания диска: 2008
Издатель (лейбл): Fenommedia
Номер по каталогу: FM 09-008
Аудио кодек: FLAC (*.flac)
Тип рипа: tracks+.cue
Битрейт аудио: lossless
Продолжительность: 1:15:35
Источник (релизер): собственный рип с оригинального диска.
Наличие сканов в содержимом раздачи: да
Треклист:
Here & Now Suite
01. Part I - Past
02. Part II - Present
03. Part III - Future
04. Rebeaming
05. Black Eagle
06. Ash Tree
07. Monkey’s Hour
 
Лог создания рипа
Exact Audio Copy V0.99 prebeta 5 from 4. May 2009
EAC extraction logfile from 12. January 2011, 17:40
Oles Brothers & Rob Brown / Live at SJC
Used drive : TSSTcorpCDDVDW SH-S222A Adapter: 1 ID: 0
Read mode : Secure
Utilize accurate stream : Yes
Defeat audio cache : Yes
Make use of C2 pointers : No
Read offset correction : 6
Overread into Lead-In and Lead-Out : No
Fill up missing offset samples with silence : Yes
Delete leading and trailing silent blocks : No
Null samples used in CRC calculations : Yes
Used interface : Installed external ASPI interface
Gap handling : Appended to previous track
Used output format : User Defined Encoder
Selected bitrate : 768 kBit/s
Quality : High
Add ID3 tag : No
Command line compressor : C:\Tool\Compress\FLAC\flac.exe
Additional command line options : -V -8 -T "ARTIST=%a" -T "TITLE=%t" -T "ALBUM=%g" -T "TRACKNUMBER=%n" -T "GENRE=%m" %s
TOC of the extracted CD
Track | Start | Length | Start sector | End sector
---------------------------------------------------------
1 | 0:00.00 | 9:45.00 | 0 | 43874
2 | 9:45.00 | 9:58.14 | 43875 | 88738
3 | 19:43.14 | 9:54.29 | 88739 | 133317
4 | 29:37.43 | 12:19.66 | 133318 | 188808
5 | 41:57.34 | 11:55.21 | 188809 | 242454
6 | 53:52.55 | 10:34.08 | 242455 | 290012
7 | 64:26.63 | 11:06.17 | 290013 | 339979
Track 1
Filename C:\! RUTRACKER\ru up\Oles Brothers & Rob Brown - Live at SJC (2008) [FLAC]\01 - Here & Now Suite Part I - Past.wav
Pre-gap length 0:00:02.00
Peak level 100.0 %
Track quality 100.0 %
Test CRC 11606F95
Copy CRC 11606F95
Track not present in AccurateRip database
Copy OK
Track 2
Filename C:\! RUTRACKER\ru up\Oles Brothers & Rob Brown - Live at SJC (2008) [FLAC]\02 - Here & Now Suite Part II - Present.wav
Peak level 99.9 %
Track quality 100.0 %
Test CRC D021DE31
Copy CRC D021DE31
Track not present in AccurateRip database
Copy OK
Track 3
Filename C:\! RUTRACKER\ru up\Oles Brothers & Rob Brown - Live at SJC (2008) [FLAC]\03 - Here & Now Suite Part III - Future.wav
Peak level 100.0 %
Track quality 99.9 %
Test CRC 690F4531
Copy CRC 690F4531
Track not present in AccurateRip database
Copy OK
Track 4
Filename C:\! RUTRACKER\ru up\Oles Brothers & Rob Brown - Live at SJC (2008) [FLAC]\04 - Rebeaming.wav
Peak level 100.0 %
Track quality 100.0 %
Test CRC 07EA2EFB
Copy CRC 07EA2EFB
Track not present in AccurateRip database
Copy OK
Track 5
Filename C:\! RUTRACKER\ru up\Oles Brothers & Rob Brown - Live at SJC (2008) [FLAC]\05 - Black Eagle.wav
Peak level 100.0 %
Track quality 99.9 %
Test CRC E0E8264C
Copy CRC E0E8264C
Track not present in AccurateRip database
Copy OK
Track 6
Filename C:\! RUTRACKER\ru up\Oles Brothers & Rob Brown - Live at SJC (2008) [FLAC]\06 - Ash Tree.wav
Peak level 78.6 %
Track quality 100.0 %
Test CRC E2DECD67
Copy CRC E2DECD67
Track not present in AccurateRip database
Copy OK
Track 7
Filename C:\! RUTRACKER\ru up\Oles Brothers & Rob Brown - Live at SJC (2008) [FLAC]\07 - Monkey's Hour.wav
Peak level 96.8 %
Track quality 100.0 %
Test CRC 0686929D
Copy CRC 0686929D
Track not present in AccurateRip database
Copy OK
None of the tracks are present in the AccurateRip database
No errors occurred
End of status report
 
Содержание индексной карты (.CUE)
REM GENRE Jazz
REM DATE 2008
REM DISCID 7311B507
REM COMMENT "ExactAudioCopy v0.99pb5"
PERFORMER "Oles Brothers & Rob Brown"
TITLE "Live at SJC"
FILE "01 - Here & Now Suite Part I - Past.wav" WAVE
TRACK 01 AUDIO
TITLE "Here & Now Suite Part I - Past"
PERFORMER "Oles Brothers & Rob Brown"
INDEX 01 00:00:00
FILE "02 - Here & Now Suite Part II - Present.wav" WAVE
TRACK 02 AUDIO
TITLE "Here & Now Suite Part II - Present"
PERFORMER "Oles Brothers & Rob Brown"
INDEX 01 00:00:00
FILE "03 - Here & Now Suite Part III - Future.wav" WAVE
TRACK 03 AUDIO
TITLE "Here & Now Suite Part III - Future"
PERFORMER "Oles Brothers & Rob Brown"
INDEX 01 00:00:00
FILE "04 - Rebeaming.wav" WAVE
TRACK 04 AUDIO
TITLE "Rebeaming"
PERFORMER "Oles Brothers & Rob Brown"
INDEX 01 00:00:00
FILE "05 - Black Eagle.wav" WAVE
TRACK 05 AUDIO
TITLE "Black Eagle"
PERFORMER "Oles Brothers & Rob Brown"
INDEX 01 00:00:00
FILE "06 - Ash Tree.wav" WAVE
TRACK 06 AUDIO
TITLE "Ash Tree"
PERFORMER "Oles Brothers & Rob Brown"
INDEX 01 00:00:00
FILE "07 - Monkey's Hour.wav" WAVE
TRACK 07 AUDIO
TITLE "Monkey's Hour"
PERFORMER "Oles Brothers & Rob Brown"
INDEX 01 00:00:00
Доп. информация:
Recorded: Siliesian Jazz Club Gliwice, 23 October 2008
 
Об альбоме (сборнике)
Dear listener. Live at SJC is the latest of twenty original albums that have been releaseed in the past ten years. Since the 1999 debut Mr. Nobody by our first group Custom Trio, we have remained faithful to our conviction - creating valuable music requires openess, technical maestry and artistic individuality. We would like to thank you for purchasing this album and supporting our work. We hope you enjoy the music.
 
Состав
Rob Brown - alto sax
Marcin Oles - double bass
Bartłomiej Brat Oles - drums
Any questions -> support@pro-jazz.com. По всем вопросам пишите -> support@pro-jazz.com
08:58
109
Нет комментариев. Ваш будет первым!