Вы используете незарегистрированную версию компонента "Вкладки"!

Поиск

(Free Improvisation, Chamber Jazz) Marcin Oles & Bartlomiej Brat Oles - Chamber Quintet - 2005, FLAC (tracks+.cue) lossless

Треклист:
Marcin Oles & Bartlomiej Brat Oles - Chamber Quintet
Жанр: Free Improvisation, Chamber Jazz
Страна-производитель диска: Poland
Год издания диска: 2005
Издатель (лейбл): Fenommedia
Номер по каталогу: FM 05-003
Аудио кодек: FLAC (*.flac)
Тип рипа: tracks+.cue
Битрейт аудио: lossless
Продолжительность: 1:09:03
Источник (релизер): собственный рип с оригинального диска.
Наличие сканов в содержимом раздачи: да
Треклист:
01. Abyss
02. Galileo
03. Eternity
04. Enigma
05. Rien que nous deux..
06. Reflection
07. Horror vacui
08. Phoenix
09. Desert walk
10. Nostalgia
11. Source
 
Лог создания рипа
Exact Audio Copy V0.99 prebeta 5 from 4. May 2009
EAC extraction logfile from 31. January 2011, 1:57
Oles, Oles feat. Friedlander, Rabinowitz, Somer / Chamber Quintet
Used drive : TSSTcorpCDDVDW SH-S222A Adapter: 1 ID: 0
Read mode : Secure
Utilize accurate stream : Yes
Defeat audio cache : Yes
Make use of C2 pointers : No
Read offset correction : 6
Overread into Lead-In and Lead-Out : No
Fill up missing offset samples with silence : Yes
Delete leading and trailing silent blocks : No
Null samples used in CRC calculations : Yes
Used interface : Installed external ASPI interface
Gap handling : Appended to previous track
Used output format : User Defined Encoder
Selected bitrate : 768 kBit/s
Quality : High
Add ID3 tag : No
Command line compressor : C:\Tool\Compress\FLAC\flac.exe
Additional command line options : -V -8 -T "ARTIST=%a" -T "TITLE=%t" -T "ALBUM=%g" -T "TRACKNUMBER=%n" -T "GENRE=%m" %s
TOC of the extracted CD
Track | Start | Length | Start sector | End sector
---------------------------------------------------------
1 | 0:00.00 | 6:12.51 | 0 | 27950
2 | 6:12.51 | 7:16.62 | 27951 | 60712
3 | 13:29.38 | 6:30.41 | 60713 | 90003
4 | 20:00.04 | 7:00.71 | 90004 | 121574
5 | 27:01.00 | 7:34.25 | 121575 | 155649
6 | 34:35.25 | 4:35.35 | 155650 | 176309
7 | 39:10.60 | 7:06.37 | 176310 | 208296
8 | 46:17.22 | 2:52.33 | 208297 | 221229
9 | 49:09.55 | 7:02.14 | 221230 | 252893
10 | 56:11.69 | 7:27.64 | 252894 | 286482
11 | 63:39.58 | 5:22.50 | 286483 | 310682
Track 1
Filename C:\! RUTRACKER\ru up\Oles Brothers - Chamber Quintet (2005) [FLAC]\01 - Abyss.wav
Pre-gap length 0:00:02.00
Peak level 99.4 %
Track quality 100.0 %
Test CRC CAFD97FA
Copy CRC CAFD97FA
Accurately ripped (confidence 2) [EA00C761]
Copy OK
Track 2
Filename C:\! RUTRACKER\ru up\Oles Brothers - Chamber Quintet (2005) [FLAC]\02 - Galileo.wav
Peak level 99.4 %
Track quality 100.0 %
Test CRC 109B08E7
Copy CRC 109B08E7
Accurately ripped (confidence 2) [F724B4D6]
Copy OK
Track 3
Filename C:\! RUTRACKER\ru up\Oles Brothers - Chamber Quintet (2005) [FLAC]\03 - Eternity.wav
Peak level 67.0 %
Track quality 100.0 %
Test CRC F3DDB398
Copy CRC F3DDB398
Accurately ripped (confidence 2) [60689316]
Copy OK
Track 4
Filename C:\! RUTRACKER\ru up\Oles Brothers - Chamber Quintet (2005) [FLAC]\04 - Enigma.wav
Peak level 99.3 %
Track quality 100.0 %
Test CRC 0A865044
Copy CRC 0A865044
Accurately ripped (confidence 2) [B459FB3F]
Copy OK
Track 5
Filename C:\! RUTRACKER\ru up\Oles Brothers - Chamber Quintet (2005) [FLAC]\05 - Rien que nous deux....wav
Peak level 32.7 %
Track quality 100.0 %
Test CRC 7AC1D37A
Copy CRC 7AC1D37A
Accurately ripped (confidence 2) [AA4CE315]
Copy OK
Track 6
Filename C:\! RUTRACKER\ru up\Oles Brothers - Chamber Quintet (2005) [FLAC]\06 - Reflection.wav
Peak level 90.8 %
Track quality 100.0 %
Test CRC 0C8A1897
Copy CRC 0C8A1897
Accurately ripped (confidence 2) [DBB16045]
Copy OK
Track 7
Filename C:\! RUTRACKER\ru up\Oles Brothers - Chamber Quintet (2005) [FLAC]\07 - Horror vacui.wav
Peak level 99.3 %
Track quality 100.0 %
Test CRC DCE821E5
Copy CRC DCE821E5
Accurately ripped (confidence 2) [72BD3AF7]
Copy OK
Track 8
Filename C:\! RUTRACKER\ru up\Oles Brothers - Chamber Quintet (2005) [FLAC]\08 - Phoenix.wav
Peak level 99.3 %
Track quality 100.0 %
Test CRC 2567F2EE
Copy CRC 2567F2EE
Accurately ripped (confidence 2) [BE9FA83B]
Copy OK
Track 9
Filename C:\! RUTRACKER\ru up\Oles Brothers - Chamber Quintet (2005) [FLAC]\09 - Desert walk.wav
Peak level 79.6 %
Track quality 100.0 %
Test CRC A1726B09
Copy CRC A1726B09
Accurately ripped (confidence 2) [45CEB019]
Copy OK
Track 10
Filename C:\! RUTRACKER\ru up\Oles Brothers - Chamber Quintet (2005) [FLAC]\10 - Nostalgia.wav
Peak level 99.3 %
Track quality 100.0 %
Test CRC 77912056
Copy CRC 77912056
Accurately ripped (confidence 2) [1649BD19]
Copy OK
Track 11
Filename C:\! RUTRACKER\ru up\Oles Brothers - Chamber Quintet (2005) [FLAC]\11 - Source.wav
Peak level 99.3 %
Track quality 100.0 %
Test CRC 178F2F57
Copy CRC 178F2F57
Accurately ripped (confidence 2) [616C7490]
Copy OK
All tracks accurately ripped
No errors occurred
End of status report
 
Содержание индексной карты (.CUE)
REM GENRE Jazz
REM DATE 2005
REM DISCID 8F102E0B
REM COMMENT "ExactAudioCopy v0.99pb5"
PERFORMER "Oles, Oles feat. Friedlander, Rabinowitz, Somer"
TITLE "Chamber Quintet"
FILE "01 - Abyss.wav" WAVE
TRACK 01 AUDIO
TITLE "Abyss"
PERFORMER "Oles, Oles feat. Friedlander, Rabinowitz, Somer"
INDEX 01 00:00:00
FILE "02 - Galileo.wav" WAVE
TRACK 02 AUDIO
TITLE "Galileo"
PERFORMER "Oles, Oles feat. Friedlander, Rabinowitz, Somer"
INDEX 01 00:00:00
FILE "03 - Eternity.wav" WAVE
TRACK 03 AUDIO
TITLE "Eternity"
PERFORMER "Oles, Oles feat. Friedlander, Rabinowitz, Somer"
INDEX 01 00:00:00
FILE "04 - Enigma.wav" WAVE
TRACK 04 AUDIO
TITLE "Enigma"
PERFORMER "Oles, Oles feat. Friedlander, Rabinowitz, Somer"
INDEX 01 00:00:00
FILE "05 - Rien que nous deux....wav" WAVE
TRACK 05 AUDIO
TITLE "Rien que nous deux..."
PERFORMER "Oles, Oles feat. Friedlander, Rabinowitz, Somer"
INDEX 01 00:00:00
FILE "06 - Reflection.wav" WAVE
TRACK 06 AUDIO
TITLE "Reflection"
PERFORMER "Oles, Oles feat. Friedlander, Rabinowitz, Somer"
INDEX 01 00:00:00
FILE "07 - Horror vacui.wav" WAVE
TRACK 07 AUDIO
TITLE "Horror vacui"
PERFORMER "Oles, Oles feat. Friedlander, Rabinowitz, Somer"
INDEX 01 00:00:00
FILE "08 - Phoenix.wav" WAVE
TRACK 08 AUDIO
TITLE "Phoenix"
PERFORMER "Oles, Oles feat. Friedlander, Rabinowitz, Somer"
INDEX 01 00:00:00
FILE "09 - Desert walk.wav" WAVE
TRACK 09 AUDIO
TITLE "Desert walk"
PERFORMER "Oles, Oles feat. Friedlander, Rabinowitz, Somer"
INDEX 01 00:00:00
FILE "10 - Nostalgia.wav" WAVE
TRACK 10 AUDIO
TITLE "Nostalgia"
PERFORMER "Oles, Oles feat. Friedlander, Rabinowitz, Somer"
INDEX 01 00:00:00
FILE "11 - Source.wav" WAVE
TRACK 11 AUDIO
TITLE "Source"
PERFORMER "Oles, Oles feat. Friedlander, Rabinowitz, Somer"
INDEX 01 00:00:00
Доп. информация:
Recorded June 23, 24 2004 at Studio Buffo Warsaw, Poland
 
Об альбоме (сборнике)
Inspired to assemble a contemporary chamber group after listening to Benjamin Britten's Phantasy for oboe and string trio, the Oles brothers recruited Emmanuelle Somer on oboe and English horn, Michael Rabinowitz on bassoon, and Erik Friedlander on cello. The swinging "Enigma" makes a convincing case for Rabinowitz as a consummate jazz bassoonist; Somer's equally notable improvisations are more firmly rooted in classical tradition.
Friedlander is given plentiful opportunity to demonstrate his talent, and on tracks like the exquisite "Rien Que Nous Deux," his cello blends seamlessly with Marcin's arco bass. Bartlomiej Brat's drumwork underpins the dynamic range of the ensemble, enhancing the contrast between the music's frantic whirligigs and its softer passages. Sidestepping the contrivances of much so-called chamber jazz, Chamber Quintet is conceptually not far removed from Uncle Meat-era Frank Zappa.
 
Состав
Emmanuelle Somer: oboe, English horn
Michael Rabinowitz: bassoon
Erik Friedlander: cello
Marcin Oles: double bass
Bartlomiej Brat Oles: drums
По всем вопросам пишите личное сообщение пользователю M0p94ok.
08:58
187
Нет комментариев. Ваш будет первым!