Вы используете незарегистрированную версию компонента "Вкладки"!

Поиск

(Free Improvisation, Modern Creative) Torque - Forward - 2011, FLAC (tracks+.cue), lossless

(Free Improvisation, Modern Creative) Torque - Forward - 2011, FLAC (tracks+.cue), lossless
Треклист:
•Torque - Forward•
Жанр: Free Improvisation, Modern Creative
Страна-производитель диска: E.U.
Год издания диска: 2011
Издатель (лейбл): Neuklang
Номер по каталогу:NCD 4055
Аудиокодек: FLAC (*.flac)
Тип рипа: tracks+.cue
Битрейт аудио: lossless
Продолжительность: 00:49:03
Источник (релизер): shummuhs
Наличие сканов в содержимом раздачи: да
Треклист:
01. Forward 4:36
02. Der Kleine Nasenbär 4:10
03. Jungle 4:26
04. Bologna 4:27
05. Drunk 4:40
06. Wasserfall 1:16
07. Wehmut 7:29
08. Halbmond 5:47
09. Appelwangetjes 5:45
10. Housemouse 5:53
Personnel:
Koen Schalkwijk (piano)
Mathias Polligkeit (double bass)
Antoine Duijkers (drums)
 
Лог создания рипа
Exact Audio Copy V1.0 beta 3 from 29. August 2011
EAC extraction logfile from 8. January 2012, 12:13
Torque / Forward
Used drive : PLEXTOR DVDR PX-860A Adapter: 0 ID: 0
Read mode : Secure
Utilize accurate stream : Yes
Defeat audio cache : Yes
Make use of C2 pointers : No
Read offset correction : 96
Overread into Lead-In and Lead-Out : No
Fill up missing offset samples with silence : Yes
Delete leading and trailing silent blocks : No
Null samples used in CRC calculations : Yes
Used interface : Native Win32 interface for Win NT & 2000
Gap handling : Appended to previous track
Used output format : User Defined Encoder
Selected bitrate : 1024 kBit/s
Quality : High
Add ID3 tag : No
Command line compressor : C:\Program Files\Exact Audio Copy 3\Flac\flac.exe
Additional command line options : -8 -V -T "ARTIST=%artist%" -T "TITLE=%title%" -T "ALBUM=%albumtitle%" -T "DATE=%year%" -T "TRACKNUMBER=%tracknr%" -T "GENRE=%genre%" -T "PERFORMER=%albuminterpret%" -T "COMPOSER=%composer%" %haslyrics%--tag-from-file=LYRICS="%lyricsfile%"%haslyrics% -T "ALBUMARTIST=%albumartist%" -T "DISCNUMBER=%cdnumber%" -T "TOTALDISCS=%totalcds%" -T "TOTALTRACKS=%numtracks%" -T "COMMENT=%comment%" %source% -o %dest%
TOC of the extracted CD
Track | Start | Length | Start sector | End sector
---------------------------------------------------------
1 | 0:00.00 | 4:41.21 | 0 | 21095
2 | 4:41.21 | 4:10.14 | 21096 | 39859
3 | 8:51.35 | 4:31.01 | 39860 | 60185
4 | 13:22.36 | 4:32.07 | 60186 | 80592
5 | 17:54.43 | 4:44.63 | 80593 | 101955
6 | 22:39.31 | 1:21.37 | 101956 | 108067
7 | 24:00.68 | 7:29.61 | 108068 | 141803
8 | 31:30.54 | 5:52.34 | 141804 | 168237
9 | 37:23.13 | 5:50.53 | 168238 | 194540
10 | 43:13.66 | 5:53.15 | 194541 | 221030
Track 1
Filename S:\DL\Torque - Forward (2011) [FLAC]\01 - Forward.wav
Pre-gap length 0:00:02.00
Peak level 97.3 %
Extraction speed 4.7 X
Track quality 100.0 %
Test CRC 79AD4A26
Copy CRC 79AD4A26
Track not present in AccurateRip database
Copy OK
Track 2
Filename S:\DL\Torque - Forward (2011) [FLAC]\02 - Der Kleine Nasenbar.wav
Pre-gap length 0:00:04.76
Peak level 97.2 %
Extraction speed 5.1 X
Track quality 100.0 %
Test CRC 9D75880F
Copy CRC 9D75880F
Track not present in AccurateRip database
Copy OK
Track 3
Filename S:\DL\Torque - Forward (2011) [FLAC]\03 - Jungle.wav
Pre-gap length 0:00:04.72
Peak level 97.4 %
Extraction speed 5.6 X
Track quality 100.0 %
Test CRC 5E90416A
Copy CRC 5E90416A
Track not present in AccurateRip database
Copy OK
Track 4
Filename S:\DL\Torque - Forward (2011) [FLAC]\04 - Bologna.wav
Pre-gap length 0:00:04.53
Peak level 97.3 %
Extraction speed 6.0 X
Track quality 100.0 %
Test CRC 2BEB4CA3
Copy CRC 2BEB4CA3
Track not present in AccurateRip database
Copy OK
Track 5
Filename S:\DL\Torque - Forward (2011) [FLAC]\05 - Drunk.wav
Pre-gap length 0:00:04.80
Peak level 97.3 %
Extraction speed 5.6 X
Track quality 99.9 %
Test CRC BB5DDCFA
Copy CRC BB5DDCFA
Track not present in AccurateRip database
Copy OK
Track 6
Filename S:\DL\Torque - Forward (2011) [FLAC]\06 - Wasserfall.wav
Pre-gap length 0:00:04.00
Peak level 63.3 %
Extraction speed 5.0 X
Track quality 100.0 %
Test CRC E379096F
Copy CRC E379096F
Track not present in AccurateRip database
Copy OK
Track 7
Filename S:\DL\Torque - Forward (2011) [FLAC]\07 - Wehmut.wav
Pre-gap length 0:00:04.94
Peak level 100.0 %
Extraction speed 7.3 X
Track quality 100.0 %
Test CRC 3B3D934E
Copy CRC 3B3D934E
Track not present in AccurateRip database
Copy OK
Track 8
Filename S:\DL\Torque - Forward (2011) [FLAC]\08 - Halbmond.wav
Pre-gap length 0:00:04.78
Peak level 97.4 %
Extraction speed 7.5 X
Track quality 100.0 %
Test CRC CDDEE47A
Copy CRC CDDEE47A
Track not present in AccurateRip database
Copy OK
Track 9
Filename S:\DL\Torque - Forward (2011) [FLAC]\09 - Appelwangetjes.wav
Pre-gap length 0:00:04.53
Peak level 97.4 %
Extraction speed 8.0 X
Track quality 100.0 %
Test CRC 984CD67D
Copy CRC 984CD67D
Track not present in AccurateRip database
Copy OK
Track 10
Filename S:\DL\Torque - Forward (2011) [FLAC]\10 - Housemouse.wav
Pre-gap length 0:00:04.64
Peak level 97.4 %
Extraction speed 8.1 X
Track quality 100.0 %
Test CRC 49403EFC
Copy CRC 49403EFC
Track not present in AccurateRip database
Copy OK
None of the tracks are present in the AccurateRip database
No errors occurred
End of status report
---- CUETools DB Plugin V2.1.3
[CTDB TOCID: ObZ4okRrOWWOAzqKndcUZ58Yk8w-] disk not present in database, Submit result: ObZ4okRrOWWOAzqKndcUZ58Yk8w- has been uploaded
==== Log checksum 15F53C97B9C058729904FA7EFDA3516BAB2C38E5934C91C88FE49AB3B4306D83 ====
 
Содержание индексной карты (.CUE)
REM GENRE Jazz
REM DATE 2011
REM DISCID 800B830A
REM COMMENT "ExactAudioCopy v1.0b3"
CATALOG 4012116405538
PERFORMER "Torque"
TITLE "Forward"
FILE "01 - Forward.wav" WAVE
TRACK 01 AUDIO
TITLE "Forward"
PERFORMER "Torque"
ISRC DED811130610
FLAGS DCP
INDEX 01 00:00:00
TRACK 02 AUDIO
TITLE "Der Kleine Nasenbar"
PERFORMER "Torque"
ISRC DED811130620
FLAGS DCP
INDEX 00 04:36:39
FILE "02 - Der Kleine Nasenbar.wav" WAVE
INDEX 01 00:00:00
TRACK 03 AUDIO
TITLE "Jungle"
PERFORMER "Torque"
ISRC DED811130630
FLAGS DCP
INDEX 00 04:05:35
FILE "03 - Jungle.wav" WAVE
INDEX 01 00:00:00
TRACK 04 AUDIO
TITLE "Bologna"
PERFORMER "Torque"
ISRC DED811130640
FLAGS DCP
INDEX 00 04:26:36
FILE "04 - Bologna.wav" WAVE
INDEX 01 00:00:00
TRACK 05 AUDIO
TITLE "Drunk"
PERFORMER "Torque"
ISRC DED811130650
FLAGS DCP
INDEX 00 04:27:22
FILE "05 - Drunk.wav" WAVE
INDEX 01 00:00:00
TRACK 06 AUDIO
TITLE "Wasserfall"
PERFORMER "Torque"
ISRC DED811130660
FLAGS DCP
INDEX 00 04:40:63
FILE "06 - Wasserfall.wav" WAVE
INDEX 01 00:00:00
TRACK 07 AUDIO
TITLE "Wehmut"
PERFORMER "Torque"
ISRC DED811130670
FLAGS DCP
INDEX 00 01:16:41
FILE "07 - Wehmut.wav" WAVE
INDEX 01 00:00:00
TRACK 08 AUDIO
TITLE "Halbmond"
PERFORMER "Torque"
ISRC DED811130680
FLAGS DCP
INDEX 00 07:25:02
FILE "08 - Halbmond.wav" WAVE
INDEX 01 00:00:00
TRACK 09 AUDIO
TITLE "Appelwangetjes"
PERFORMER "Torque"
ISRC DED811130690
FLAGS DCP
INDEX 00 05:47:69
FILE "09 - Appelwangetjes.wav" WAVE
INDEX 01 00:00:00
TRACK 10 AUDIO
TITLE "Housemouse"
PERFORMER "Torque"
ISRC DED811130700
FLAGS DCP
INDEX 00 05:46:05
FILE "10 - Housemouse.wav" WAVE
INDEX 01 00:00:00
Any questions -> support@pro-jazz.com. По всем вопросам пишите -> support@pro-jazz.com
21:18
131
Нет комментариев. Ваш будет первым!