Вы используете незарегистрированную версию компонента "Вкладки"!

Поиск

(Avant-Garde Jazz, Free Improvisation) Joelle Leandre - Les Douze Sons - 2011, FLAC (tracks+.cue), lossless

(Avant-Garde Jazz, Free Improvisation) Joelle Leandre - Les Douze Sons - 2011, FLAC (tracks+.cue), lossless
Треклист:
•Joelle Leandre - Les Douze Sons•
Жанр: Avant-Garde Jazz, Free Improvisation
Страна-производитель диска: E.U.
Год издания диска: 2011
Издатель (лейбл): L'Autre Distribution
Номер по каталогу: 82
Аудиокодек: FLAC (*.flac)
Тип рипа: tracks+.cue
Битрейт аудио: lossless
Продолжительность: 00:42:44
Источник (релизер): shummuhs
Наличие сканов в содержимом раздачи: да
Треклист:
01. Pavane 1:03
02. Basses profondes 2:45
03. Pierrot 0:45
04. Ballade de chien 4:42
05. Cadenza rare 0:14
06. Trio en forme de bagatelle 5:21
07. Grand duo concertant 4:11
08. Les trois dames 8:48
09. Instant opus 3 1:20
10. Sonate breve échappée 6:42
11. Seriozo (Pour cordes et trombone) 6:45
12. Soupir 0:08
Personnel:
Joelle Leandre - b, mediation
Derek Bailey - g
Ernst Reijseger - cello
Barre Phillips - b
Ierne Schweizer - p
George Lewis - tb
Annick Nozati - chant
 
Лог создания рипа
Exact Audio Copy V1.0 beta 3 from 29. August 2011
EAC extraction logfile from 11. January 2012, 15:51
Joelle Leandre / Les Douze Sons
Used drive : PLEXTOR DVDR PX-860A Adapter: 0 ID: 0
Read mode : Secure
Utilize accurate stream : Yes
Defeat audio cache : Yes
Make use of C2 pointers : No
Read offset correction : 96
Overread into Lead-In and Lead-Out : No
Fill up missing offset samples with silence : Yes
Delete leading and trailing silent blocks : No
Null samples used in CRC calculations : Yes
Used interface : Native Win32 interface for Win NT & 2000
Gap handling : Appended to previous track
Used output format : User Defined Encoder
Selected bitrate : 1024 kBit/s
Quality : High
Add ID3 tag : No
Command line compressor : C:\Program Files\Exact Audio Copy 3\Flac\flac.exe
Additional command line options : -8 -V -T "ARTIST=%artist%" -T "TITLE=%title%" -T "ALBUM=%albumtitle%" -T "DATE=%year%" -T "TRACKNUMBER=%tracknr%" -T "GENRE=%genre%" -T "PERFORMER=%albuminterpret%" -T "COMPOSER=%composer%" %haslyrics%--tag-from-file=LYRICS="%lyricsfile%"%haslyrics% -T "ALBUMARTIST=%albumartist%" -T "DISCNUMBER=%cdnumber%" -T "TOTALDISCS=%totalcds%" -T "TOTALTRACKS=%numtracks%" -T "COMMENT=%comment%" %source% -o %dest%
TOC of the extracted CD
Track | Start | Length | Start sector | End sector
---------------------------------------------------------
1 | 0:00.00 | 1:03.48 | 0 | 4772
2 | 1:03.48 | 2:45.16 | 4773 | 17163
3 | 3:48.64 | 0:45.67 | 17164 | 20605
4 | 4:34.56 | 4:42.32 | 20606 | 41787
5 | 9:17.13 | 0:14.24 | 41788 | 42861
6 | 9:31.37 | 5:21.60 | 42862 | 66996
7 | 14:53.22 | 4:11.59 | 66997 | 85880
8 | 19:05.06 | 8:48.27 | 85881 | 125507
9 | 27:53.33 | 1:20.25 | 125508 | 131532
10 | 29:13.58 | 6:42.22 | 131533 | 161704
11 | 35:56.05 | 6:45.12 | 161705 | 192091
12 | 42:41.17 | 0:08.09 | 192092 | 192700
Track 1
Filename S:\DL\Joelle Leandre - Les Douze Sons (2011) [FLAC]\01 - Pavane.wav
Pre-gap length 0:00:02.00
Peak level 99.0 %
Extraction speed 3.0 X
Track quality 100.0 %
Test CRC C40D0964
Copy CRC C40D0964
Track not present in AccurateRip database
Copy OK
Track 2
Filename S:\DL\Joelle Leandre - Les Douze Sons (2011) [FLAC]\02 - Basses profondes.wav
Pre-gap length 0:00:03.37
Peak level 66.5 %
Extraction speed 4.2 X
Track quality 100.0 %
Test CRC 891A4489
Copy CRC 891A4489
Track not present in AccurateRip database
Copy OK
Track 3
Filename S:\DL\Joelle Leandre - Les Douze Sons (2011) [FLAC]\03 - Pierrot.wav
Pre-gap length 0:00:03.92
Peak level 29.0 %
Extraction speed 3.0 X
Track quality 100.0 %
Test CRC D5C0442C
Copy CRC D5C0442C
Track not present in AccurateRip database
Copy OK
Track 4
Filename S:\DL\Joelle Leandre - Les Douze Sons (2011) [FLAC]\04 - Ballade de chien.wav
Pre-gap length 0:00:03.94
Peak level 99.3 %
Extraction speed 5.0 X
Track quality 100.0 %
Test CRC 8DA281BB
Copy CRC 8DA281BB
Track not present in AccurateRip database
Copy OK
Track 5
Filename S:\DL\Joelle Leandre - Les Douze Sons (2011) [FLAC]\05 - Cadenza rare.wav
Pre-gap length 0:00:02.72
Peak level 57.4 %
Extraction speed 1.6 X
Track quality 100.0 %
Test CRC E8ED944D
Copy CRC E8ED944D
Track not present in AccurateRip database
Copy OK
Track 6
Filename S:\DL\Joelle Leandre - Les Douze Sons (2011) [FLAC]\06 - Trio en forme de bagatelle.wav
Pre-gap length 0:00:03.46
Peak level 91.6 %
Extraction speed 5.6 X
Track quality 100.0 %
Test CRC C044150A
Copy CRC C044150A
Track not present in AccurateRip database
Copy OK
Track 7
Filename S:\DL\Joelle Leandre - Les Douze Sons (2011) [FLAC]\07 - Grand duo concertant.wav
Pre-gap length 0:00:03.33
Peak level 90.2 %
Extraction speed 5.9 X
Track quality 100.0 %
Test CRC 2C9801CF
Copy CRC 2C9801CF
Track not present in AccurateRip database
Copy OK
Track 8
Filename S:\DL\Joelle Leandre - Les Douze Sons (2011) [FLAC]\08 - Les trois dames.wav
Pre-gap length 0:00:06.05
Peak level 99.1 %
Extraction speed 6.8 X
Track quality 100.0 %
Test CRC 07F62551
Copy CRC 07F62551
Track not present in AccurateRip database
Copy OK
Track 9
Filename S:\DL\Joelle Leandre - Les Douze Sons (2011) [FLAC]\09 - Instant opus 3.wav
Pre-gap length 0:00:03.48
Peak level 88.1 %
Extraction speed 4.0 X
Track quality 99.8 %
Test CRC F8EA73B8
Copy CRC F8EA73B8
Track not present in AccurateRip database
Copy OK
Track 10
Filename S:\DL\Joelle Leandre - Les Douze Sons (2011) [FLAC]\10 - Sonate breve echappee.wav
Pre-gap length 0:00:03.58
Peak level 98.1 %
Extraction speed 7.3 X
Track quality 100.0 %
Test CRC 420536B2
Copy CRC 420536B2
Track not present in AccurateRip database
Copy OK
Track 11
Filename S:\DL\Joelle Leandre - Les Douze Sons (2011) [FLAC]\11 - Seriozo (pour cordes et trombone).wav
Pre-gap length 0:00:03.06
Peak level 91.3 %
Extraction speed 7.7 X
Track quality 100.0 %
Test CRC CD6BB2C7
Copy CRC CD6BB2C7
Track not present in AccurateRip database
Copy OK
Track 12
Filename S:\DL\Joelle Leandre - Les Douze Sons (2011) [FLAC]\12 - Soupir.wav
Pre-gap length 0:00:02.08
Peak level 4.7 %
Extraction speed 1.5 X
Track quality 100.0 %
Test CRC 2B7A64F7
Copy CRC 2B7A64F7
Track not present in AccurateRip database
Copy OK
None of the tracks are present in the AccurateRip database
No errors occurred
End of status report
---- CUETools DB Plugin V2.1.3
[CTDB TOCID: eQ0_s5bHqHGdnd2Bua69htoDTPM-] disk not present in database, Submit result: eQ0_s5bHqHGdnd2Bua69htoDTPM- has been uploaded
==== Log checksum 3B23CBDA51778233D31ECF6405D668B75F443A17FCB4C524871BEA389B68DC3C ====
 
Содержание индексной карты (.CUE)
REM GENRE Jazz
REM DATE 2011
REM DISCID AB0A090C
REM COMMENT "ExactAudioCopy v1.0b3"
PERFORMER "Joelle Leandre"
TITLE "Les Douze Sons"
FILE "01 - Pavane.wav" WAVE
TRACK 01 AUDIO
TITLE "Pavane"
PERFORMER "Joelle Leandre"
ISRC FR0LU8300022
INDEX 01 00:00:00
TRACK 02 AUDIO
TITLE "Basses profondes"
PERFORMER "Joelle Leandre"
ISRC FR0LU8300023
INDEX 00 01:00:20
FILE "02 - Basses profondes.wav" WAVE
INDEX 01 00:00:00
TRACK 03 AUDIO
TITLE "Pierrot"
PERFORMER "Joelle Leandre"
ISRC FR0LU8300024
INDEX 00 02:41:22
FILE "03 - Pierrot.wav" WAVE
INDEX 01 00:00:00
TRACK 04 AUDIO
TITLE "Ballade de chien"
PERFORMER "Joelle Leandre"
ISRC FR0LU8300025
INDEX 00 00:41:71
FILE "04 - Ballade de chien.wav" WAVE
INDEX 01 00:00:00
TRACK 05 AUDIO
TITLE "Cadenza rare"
PERFORMER "Joelle Leandre"
ISRC FR0LU8300026
INDEX 00 04:39:53
FILE "05 - Cadenza rare.wav" WAVE
INDEX 01 00:00:00
TRACK 06 AUDIO
TITLE "Trio en forme de bagatelle"
PERFORMER "Joelle Leandre"
ISRC FR0LU8300027
INDEX 00 00:10:64
FILE "06 - Trio en forme de bagatelle.wav" WAVE
INDEX 01 00:00:00
TRACK 07 AUDIO
TITLE "Grand duo concertant"
PERFORMER "Joelle Leandre"
ISRC FR0LU8300028
INDEX 00 05:18:35
FILE "07 - Grand duo concertant.wav" WAVE
INDEX 01 00:00:00
TRACK 08 AUDIO
TITLE "Les trois dames"
PERFORMER "Joelle Leandre"
ISRC FR0LU8300029
INDEX 00 04:05:55
FILE "08 - Les trois dames.wav" WAVE
INDEX 01 00:00:00
TRACK 09 AUDIO
TITLE "Instant opus 3"
PERFORMER "Joelle Leandre"
ISRC FR0LU8300030
INDEX 00 08:44:66
FILE "09 - Instant opus 3.wav" WAVE
INDEX 01 00:00:00
TRACK 10 AUDIO
TITLE "Sonate breve echappee"
PERFORMER "Joelle Leandre"
ISRC FR0LU8300031
INDEX 00 01:16:56
FILE "10 - Sonate breve echappee.wav" WAVE
INDEX 01 00:00:00
TRACK 11 AUDIO
TITLE "Seriozo (pour cordes et trombone)"
PERFORMER "Joelle Leandre"
ISRC FR0LU8300032
INDEX 00 06:39:17
FILE "11 - Seriozo (pour cordes et trombone).wav" WAVE
INDEX 01 00:00:00
TRACK 12 AUDIO
TITLE "Soupir"
PERFORMER "Joelle Leandre"
ISRC FR0LU8300033
INDEX 00 06:43:06
FILE "12 - Soupir.wav" WAVE
INDEX 01 00:00:00
Any questions -> support@pro-jazz.com. По всем вопросам пишите -> support@pro-jazz.com
21:17
122
Нет комментариев. Ваш будет первым!