Вы используете незарегистрированную версию компонента "Вкладки"!

Поиск

(Free Improvisation / Modern Creative) [CD] David Liebman, Ernst Reijseger, Georg Grawe, Henrik Hallberg, Wilbert De Joode, Uli Soyka - Fluchtigkeiten - 2012, FLAC (tracks+.cue), lossless

(Free Improvisation / Modern Creative) [CD] David Liebman, Ernst Reijseger, Georg Grawe, Henrik Hallberg, Wilbert De Joode, Uli Soyka - Fluchtigkeiten - 2012, FLAC (tracks+.cue), lossless
Треклист:
David Liebman, Ernst Reijseger, Georg Gräwe, Henrik Hallberg, Wilbert De Joode, Uli Soyka - Flüchtigkeiten
Жанр: Free Improvisation / Modern Creative
Носитель: CD
Страна-производитель диска: Austria
Год издания: 2012
Издатель (лейбл): Pan Tau-X Records
Номер по каталогу: pt-x 014
Аудиокодек: FLAC (*.flac)
Тип рипа: tracks+.cue
Битрейт аудио: lossless
Продолжительность: 01:19:51
Источник (релизер): what.cd / спасибо 6060842
Наличие сканов в содержимом раздачи: нет
Треклист:
1. erwachen (19:44)
2. visualisieren (13:05)
3. innere Befindlichkeiten (13:21)
4. wechselnde Entschlossenheit (06:37)
5. ...ein kurzer Zwischentraum (07:49)
6. Tages-Highlight und Normalitäet (19:14)
All Compositions by Liebman, Reijseger, Graewe, Hallberg, De Joode, Soyka
Доп. информация:
Musicians:
David Liebman [USA] - soprano- & tenor-saxophone, wooden flute
Ernst Reijseger [NL] - violoncello
Georg Gräewe [GER] - grand-piano
Henrik Hallberg [SWE] - guitar
Wilbert De Joode [NL] - double-bass
Uli Soyka [A] - drums, toys, recorder
Recorded live 2009, Dec 11th @ Porgy & Bess / Vienna @ Portrait "Uli Soyka"
David Liebman, Ernst Reijseger, Georg Gräwe, Henrik Hallberg, Wilbert De Joode, Uli Soyka - Flüchtigkeiten pantau-x-records.com
Dave Liebman Official Site
Dave Liebman from Wikipedia, the free encyclopedia
Ernst Reijseger Official Site
Ernst Reijseger from Wikipedia, the free encyclopedia
Georg Gräwe from Wikipedia, the free encyclopedia
Uli Soyka from Wikipedia, the free encyclopedia
 
... photo ...



 
Лог создания рипа
X Lossless Decoder version 20130602 (143.2)
XLD extraction logfile from 2013-06-23 12:11:15 +0400
David Liebman, Ernst Reijseger, Georg Gräwe, Henrik Hallberg, Wilbert de Joode, Uli Soyka / Flüchtigkeiten
Used drive : (null) (null) (revision (null))
Media type :
Ripper mode : XLD Secure Ripper
Disable audio cache : OK for the drive with a cache less than 1375KiB
Make use of C2 pointers : NO
Read offset correction : 6
Max retry count : 100
Gap status : Analyzed, Appended (except HTOA)
TOC of the extracted CD
Track | Start | Length | Start sector | End sector
---------------------------------------------------------
1 | 00:00:00 | 19:44:61 | 0 | 88860
2 | 19:44:61 | 13:07:34 | 88861 | 147919
3 | 32:52:20 | 13:21:06 | 147920 | 208000
4 | 46:13:26 | 06:39:00 | 208001 | 237925
5 | 52:52:26 | 07:49:04 | 237926 | 273104
6 | 60:41:30 | 19:14:26 | 273105 | 359680
AccurateRip Summary
Disc not found in AccurateRip DB.
All Tracks
Album gain : -3.72 dB
Peak : 0.995483
Statistics
Read error : 0
Jitter error (maybe fixed) : 0
Retry sector count : 0
Damaged sector count : 0
Track 01
Filename : /Users/anch/Music/FLAC/David Liebman, Ernst Reijseger, Georg Grawe, Henrik Hallberg, Wilbert de Joode, Uli Soyka - 2012 - Fluchtigkeiten [MP3 320]/01 - erwachen.mp3
/Users/anch/Music/FLAC/David Liebman, Ernst Reijseger, Georg Grawe, Henrik Hallberg, Wilbert de Joode, Uli Soyka - 2012 - Fluchtigkeiten [MP3 V0]/01 - erwachen.mp3
/Users/anch/Music/FLAC/David Liebman, Ernst Reijseger, Georg Grawe, Henrik Hallberg, Wilbert de Joode, Uli Soyka - 2012 - Fluchtigkeiten [FLAC]/01 - erwachen.flac
Pre-gap length : 00:02:00
Track gain : -2.79 dB
Peak : 0.971344
CRC32 hash (test run) : E3BD1F8C
CRC32 hash : E3BD1F8C
CRC32 hash (skip zero) : C28A3174
AccurateRip v1 signature : 135F7FC0
AccurateRip v2 signature : 220FFF1A
->Track not present in AccurateRip database.
Statistics
Read error : 0
Jitter error (maybe fixed) : 0
Retry sector count : 0
Damaged sector count : 0
Track 02
Filename : /Users/anch/Music/FLAC/David Liebman, Ernst Reijseger, Georg Grawe, Henrik Hallberg, Wilbert de Joode, Uli Soyka - 2012 - Fluchtigkeiten [MP3 320]/02 - visualisieren.mp3
/Users/anch/Music/FLAC/David Liebman, Ernst Reijseger, Georg Grawe, Henrik Hallberg, Wilbert de Joode, Uli Soyka - 2012 - Fluchtigkeiten [MP3 V0]/02 - visualisieren.mp3
/Users/anch/Music/FLAC/David Liebman, Ernst Reijseger, Georg Grawe, Henrik Hallberg, Wilbert de Joode, Uli Soyka - 2012 - Fluchtigkeiten [FLAC]/02 - visualisieren.flac
Track gain : -3.94 dB
Peak : 0.995483
CRC32 hash (test run) : 78F01636
CRC32 hash : 78F01636
CRC32 hash (skip zero) : 4A3F0322
AccurateRip v1 signature : 187DA49A
AccurateRip v2 signature : 2F272506
->Track not present in AccurateRip database.
Statistics
Read error : 0
Jitter error (maybe fixed) : 0
Retry sector count : 0
Damaged sector count : 0
Track 03
Filename : /Users/anch/Music/FLAC/David Liebman, Ernst Reijseger, Georg Grawe, Henrik Hallberg, Wilbert de Joode, Uli Soyka - 2012 - Fluchtigkeiten [MP3 320]/03 - innere Befindlichkeiten.mp3
/Users/anch/Music/FLAC/David Liebman, Ernst Reijseger, Georg Grawe, Henrik Hallberg, Wilbert de Joode, Uli Soyka - 2012 - Fluchtigkeiten [MP3 V0]/03 - innere Befindlichkeiten.mp3
/Users/anch/Music/FLAC/David Liebman, Ernst Reijseger, Georg Grawe, Henrik Hallberg, Wilbert de Joode, Uli Soyka - 2012 - Fluchtigkeiten [FLAC]/03 - innere Befindlichkeiten.flac
Pre-gap length : 00:01:74
Track gain : -4.03 dB
Peak : 0.983673
CRC32 hash (test run) : E2F8E1E8
CRC32 hash : E2F8E1E8
CRC32 hash (skip zero) : B2EA71E6
AccurateRip v1 signature : D323F9DA
AccurateRip v2 signature : 60AAD79C
->Track not present in AccurateRip database.
Statistics
Read error : 0
Jitter error (maybe fixed) : 0
Retry sector count : 0
Damaged sector count : 0
Track 04
Filename : /Users/anch/Music/FLAC/David Liebman, Ernst Reijseger, Georg Grawe, Henrik Hallberg, Wilbert de Joode, Uli Soyka - 2012 - Fluchtigkeiten [MP3 320]/04 - wechselnde Entschlossenheit.mp3
/Users/anch/Music/FLAC/David Liebman, Ernst Reijseger, Georg Grawe, Henrik Hallberg, Wilbert de Joode, Uli Soyka - 2012 - Fluchtigkeiten [MP3 V0]/04 - wechselnde Entschlossenheit.mp3
/Users/anch/Music/FLAC/David Liebman, Ernst Reijseger, Georg Grawe, Henrik Hallberg, Wilbert de Joode, Uli Soyka - 2012 - Fluchtigkeiten [FLAC]/04 - wechselnde Entschlossenheit.flac
Track gain : 0.12 dB
Peak : 0.966949
CRC32 hash (test run) : 62265E45
CRC32 hash : 62265E45
CRC32 hash (skip zero) : 4ED2F6B9
AccurateRip v1 signature : 90F5363E
AccurateRip v2 signature : CD349292
->Track not present in AccurateRip database.
Statistics
Read error : 0
Jitter error (maybe fixed) : 0
Retry sector count : 0
Damaged sector count : 0
Track 05
Filename : /Users/anch/Music/FLAC/David Liebman, Ernst Reijseger, Georg Grawe, Henrik Hallberg, Wilbert de Joode, Uli Soyka - 2012 - Fluchtigkeiten [MP3 320]/05 - …ein kurzer Zwischentraum.mp3
/Users/anch/Music/FLAC/David Liebman, Ernst Reijseger, Georg Grawe, Henrik Hallberg, Wilbert de Joode, Uli Soyka - 2012 - Fluchtigkeiten [MP3 V0]/05 - …ein kurzer Zwischentraum.mp3
/Users/anch/Music/FLAC/David Liebman, Ernst Reijseger, Georg Grawe, Henrik Hallberg, Wilbert de Joode, Uli Soyka - 2012 - Fluchtigkeiten [FLAC]/05 - …ein kurzer Zwischentraum.flac
Pre-gap length : 00:01:73
Track gain : -1.87 dB
Peak : 0.965057
CRC32 hash (test run) : 13B722E5
CRC32 hash : 13B722E5
CRC32 hash (skip zero) : B692F55F
AccurateRip v1 signature : 538BF2B3
AccurateRip v2 signature : 7C4418A8
->Track not present in AccurateRip database.
Statistics
Read error : 0
Jitter error (maybe fixed) : 0
Retry sector count : 0
Damaged sector count : 0
Track 06
Filename : /Users/anch/Music/FLAC/David Liebman, Ernst Reijseger, Georg Grawe, Henrik Hallberg, Wilbert de Joode, Uli Soyka - 2012 - Fluchtigkeiten [MP3 320]/06 - Tages-Highlight und Normalitat.mp3
/Users/anch/Music/FLAC/David Liebman, Ernst Reijseger, Georg Grawe, Henrik Hallberg, Wilbert de Joode, Uli Soyka - 2012 - Fluchtigkeiten [MP3 V0]/06 - Tages-Highlight und Normalitat.mp3
/Users/anch/Music/FLAC/David Liebman, Ernst Reijseger, Georg Grawe, Henrik Hallberg, Wilbert de Joode, Uli Soyka - 2012 - Fluchtigkeiten [FLAC]/06 - Tages-Highlight und Normalitat.flac
Track gain : -4.67 dB
Peak : 0.978790
CRC32 hash (test run) : 8B870E7B
CRC32 hash : 8B870E7B
CRC32 hash (skip zero) : 9C1A180B
AccurateRip v1 signature : 39BCF82A
AccurateRip v2 signature : 14B440D5
->Track not present in AccurateRip database.
Statistics
Read error : 0
Jitter error (maybe fixed) : 0
Retry sector count : 0
Damaged sector count : 0
No errors occurred
End of status report
 
Содержание индексной карты (.CUE)
TITLE "Flüchtigkeiten"
PERFORMER "David Liebman, Ernst Reijseger, Georg Grawe, Henrik Hallberg, Wilbert de Joode, Uli Soyka"
CATALOG 9120018860142
REM GENRE "Free Jazz"
REM DATE "2012"
REM DISCID 5B000006
REM REPLAYGAIN_ALBUM_GAIN -3.72 dB
REM REPLAYGAIN_ALBUM_PEAK 0.995483
FILE "01 - erwachen.flac" WAVE
TRACK 01 AUDIO
TITLE "erwachen"
PERFORMER "David Liebman, Ernst Reijseger, Georg Grawe, Henrik Hallberg, Wilbert de Joode, Uli Soyka"
ISRC ATP551201401
REM REPLAYGAIN_TRACK_GAIN -2.79 dB
REM REPLAYGAIN_TRACK_PEAK 0.971344
INDEX 01 00:00:00
FILE "02 - visualisieren.flac" WAVE
TRACK 02 AUDIO
TITLE "visualisieren"
PERFORMER "David Liebman, Ernst Reijseger, Georg Grawe, Henrik Hallberg, Wilbert de Joode, Uli Soyka"
ISRC ATP551201402
REM REPLAYGAIN_TRACK_GAIN -3.94 dB
REM REPLAYGAIN_TRACK_PEAK 0.995483
INDEX 01 00:00:00
TRACK 03 AUDIO
TITLE "innere Befindlichkeiten"
PERFORMER "David Liebman, Ernst Reijseger, Georg Grawe, Henrik Hallberg, Wilbert de Joode, Uli Soyka"
ISRC ATP551201403
REM REPLAYGAIN_TRACK_GAIN -4.03 dB
REM REPLAYGAIN_TRACK_PEAK 0.983673
INDEX 00 13:05:35
FILE "03 - innere Befindlichkeiten.flac" WAVE
INDEX 01 00:00:00
FILE "04 - wechselnde Entschlossenheit.flac" WAVE
TRACK 04 AUDIO
TITLE "wechselnde Entschlossenheit"
PERFORMER "David Liebman, Ernst Reijseger, Georg Grawe, Henrik Hallberg, Wilbert de Joode, Uli Soyka"
ISRC ATP551201404
REM REPLAYGAIN_TRACK_GAIN 0.12 dB
REM REPLAYGAIN_TRACK_PEAK 0.966949
INDEX 01 00:00:00
TRACK 05 AUDIO
TITLE "…ein kurzer Zwischentraum"
PERFORMER "David Liebman, Ernst Reijseger, Georg Grawe, Henrik Hallberg, Wilbert de Joode, Uli Soyka"
ISRC ATP551201405
REM REPLAYGAIN_TRACK_GAIN -1.87 dB
REM REPLAYGAIN_TRACK_PEAK 0.965057
INDEX 00 06:37:02
FILE "05 - …ein kurzer Zwischentraum.flac" WAVE
INDEX 01 00:00:00
FILE "06 - Tages-Highlight und Normalitat.flac" WAVE
TRACK 06 AUDIO
TITLE "Tages-Highlight und Normalitat"
PERFORMER "David Liebman, Ernst Reijseger, Georg Grawe, Henrik Hallberg, Wilbert de Joode, Uli Soyka"
ISRC ATP551201406
REM REPLAYGAIN_TRACK_GAIN -4.67 dB
REM REPLAYGAIN_TRACK_PEAK 0.978790
INDEX 01 00:00:00
 
auCDtect Task Manager
-----------------------
DON'T MODIFY THIS FILE
-----------------------
PERFORMER: auCDtect Task Manager, ver. 1.5.1RC6 build 1.5.1.7
Copyright (c) 2008-2010 y-soft. All rights reserved
http://y-soft.org
ANALYZER: auCDtect: CD records authenticity detector, version 0.8.2
Copyright (c) 2004 Oleg Berngardt. All rights reserved.
Copyright (c) 2004 Alexander Djourik. All rights reserved.
FILE: 06 - Tages-Highlight und Normalitat.flac
Size: 110627676 Hash: 8006652EC65909D0AE654132A95246D3 Accuracy: -m0
Conclusion: CDDA 100%
Signature: E1F6F51EEDE22E007545E7EAAA651B9405899A9F
FILE: 05 - …ein kurzer Zwischentraum.flac
Size: 38321729 Hash: 88BE18406AC1865B0C390AA76C2E9E94 Accuracy: -m0
Conclusion: CDDA 100%
Signature: EE514273CBEAC5D943A7226CE6A29EC4C2FF90E1
FILE: 04 - wechselnde Entschlossenheit.flac
Size: 36038604 Hash: 06F6555883763A5234ACBA15E194B067 Accuracy: -m0
Conclusion: CDDA 100%
Signature: 4C557BF0480439DA60293CAD7D97310B93C41D73
FILE: 03 - innere Befindlichkeiten.flac
Size: 70435064 Hash: 71202DC397F7676C70925EB4E9496EBB Accuracy: -m0
Conclusion: CDDA 100%
Signature: 91DDB5C2DE048BC6E96467B2A0B9B8BEFC58FA38
FILE: 02 - visualisieren.flac
Size: 68710491 Hash: 3BAB1EE36B1F6039DEDFC1419650B25F Accuracy: -m0
Conclusion: CDDA 99%
Signature: 91054B1876CCA21A64888789ACD38A363BF696DD
FILE: 01 - erwachen.flac
Size: 101747061 Hash: 616C9B18F7A02E3288370EBA303D7922 Accuracy: -m0
Conclusion: CDDA 99%
Signature: 80B0931FC0648748F008E617405862A98761D3FC
... релизы с участием DAVE LIEBMAN на трекере ...
По всем вопросам пишите личное сообщение пользователю M0p94ok.
02:51
154
Нет комментариев. Ваш будет первым!