Вы используете незарегистрированную версию компонента "Вкладки"!

Поиск

(Free Improvisation) [CD] Harold Rubin, Barre Phillips, Tatsuya Nakatani - 3 On A Thin Line - 2013, FLAC (image+.cue), lossless

(Free Improvisation) [CD] Harold Rubin, Barre Phillips, Tatsuya Nakatani - 3 On A Thin Line - 2013, FLAC (image+.cue), lossless
Треклист:
Harold Rubin, Barre Phillips, Tatsuya Nakatani / 3 On A Thin Line
Жанр: Free Improvisation
Носитель: CD
Страна-производитель диска: US
Год издания: 2013
Издатель (лейбл): Hopscotch Records
Номер по каталогу: HOP 25
Аудиокодек: FLAC (*.flac)
Тип рипа: image+.cue
Битрейт аудио: lossless
Продолжительность: 65:14
Источник (релизер): CD
Наличие сканов в содержимом раздачи: нет
Треклист:
1. Genesis 14:22
2. Zeta 14:29
3. Zariba 11:20
4. Zetetic 10:34
5. Zodiac 8:24
6. Epilogue 6:05
 
Лог создания рипа
Exact Audio Copy V1.0 beta 2 from 29. April 2011
EAC extraction logfile from 19. June 2014, 17:29
Harold Rubin, Barre Phillips, Tatsuya Nakatani / Three On A Thin Line
Used drive : Optiarc DVD RW AD-7170A Adapter: 0 ID: 0
Read mode : Secure
Utilize accurate stream : Yes
Defeat audio cache : Yes
Make use of C2 pointers : No
Read offset correction : 48
Overread into Lead-In and Lead-Out : No
Fill up missing offset samples with silence : Yes
Delete leading and trailing silent blocks : No
Null samples used in CRC calculations : Yes
Used interface : Native Win32 interface for Win NT & 2000
Used output format : User Defined Encoder
Selected bitrate : 320 kBit/s
Quality : High
Add ID3 tag : No
Command line compressor : C:\Program Files\Exact Audio Copy\Flac\flac.exe
Additional command line options : -V -8 -T "Date=%year%" -T "Genre=%genre%" %source%
TOC of the extracted CD
Track | Start | Length | Start sector | End sector
---------------------------------------------------------
1 | 0:00.00 | 14:22.31 | 0 | 64680
2 | 14:22.31 | 14:28.52 | 64681 | 129832
3 | 28:51.08 | 11:19.60 | 129833 | 180817
4 | 40:10.68 | 10:34.11 | 180818 | 228378
5 | 50:45.04 | 8:23.38 | 228379 | 266141
6 | 59:08.42 | 6:05.37 | 266142 | 293553
Range status and errors
Selected range
Filename K:\ЕАС\Harold Rubin, Barre Phillips, Tatsuya Nakatani - Three On A Thin Line.wav
Peak level 98.6 %
Extraction speed 1.8 X
Range quality 99.9 %
Test CRC 543F3645
Copy CRC 543F3645
Copy OK
No errors occurred
AccurateRip summary
Track 1 not present in database
Track 2 not present in database
Track 3 not present in database
Track 4 not present in database
Track 5 not present in database
Track 6 not present in database
None of the tracks are present in the AccurateRip database
End of status report
==== Log checksum DEC91A6F651BF50A04C2FD47377FD89B5E358396EB7EDF0C05B127F3CF1746A4 ====
 
Содержание индексной карты (.CUE)
REM GENRE Jazz
REM DATE 2013
REM DISCID 460F4A06
REM COMMENT "ExactAudioCopy v1.0b2"
PERFORMER "Harold Rubin, Barre Phillips, Tatsuya Nakatani"
TITLE "Three On A Thin Line"
FILE "Harold Rubin, Barre Phillips, Tatsuya Nakatani - Three On A Thin Line.flac" WAVE
TRACK 01 AUDIO
TITLE "Genesis"
PERFORMER "Harold Rubin, Barre Phillips, Tatsuya Nakatani"
ISRC 000000000000
INDEX 01 00:00:00
TRACK 02 AUDIO
TITLE "Zeta"
PERFORMER "Harold Rubin, Barre Phillips, Tatsuya Nakatani"
ISRC 000000000000
INDEX 00 14:20:32
INDEX 01 14:22:31
TRACK 03 AUDIO
TITLE "Zariba"
PERFORMER "Harold Rubin, Barre Phillips, Tatsuya Nakatani"
ISRC 000000000000
INDEX 00 28:48:09
INDEX 01 28:51:08
TRACK 04 AUDIO
TITLE "Zetetic"
PERFORMER "Harold Rubin, Barre Phillips, Tatsuya Nakatani"
ISRC 000000000000
INDEX 00 40:07:69
INDEX 01 40:10:68
TRACK 05 AUDIO
TITLE "Zodiac"
PERFORMER "Harold Rubin, Barre Phillips, Tatsuya Nakatani"
ISRC 000000000000
INDEX 01 50:45:04
TRACK 06 AUDIO
TITLE "Epilogue"
PERFORMER "Harold Rubin, Barre Phillips, Tatsuya Nakatani"
ISRC 000000000000
INDEX 00 59:06:43
INDEX 01 59:08:42
Доп. информация: Recorded live at Levontin 7 on April 23rd, 2009. TelAviv
 
Об альбоме (сборнике)
"Three on a thin line introduces to us the unique and beautiful voice of Clarinetist Harold Rubin. At 80 years old at the time of the recording Harold, who lives in Israel and was born in South Africa, is a revelation. Regretfully very rarely recorded Harold is one of the most unique clarinetist in free jazz walking along such giants as John Carter and Perry Robinson. In young life he got to play with all the famous musician of the 50 Jazz Scene of South Africa. IN the end of the 50's Harold went to trial for painting a black Jesus protesting the Apartheid and after being acquitted he left the country first to England and then to Israel. This put his music on hold for many years with very few peers to play with. Luckily here we get to hear him with master Bassist Barre Phillips who sounds like a kindred soul to Harold and Tatsuya joins this two masters with his own unique, surprising and creative percussive sonic drive."- Hopscotch
 
Состав
Harold Rubin-clarinet
Barre Phillips-double bass
Tatsuya Nakatani-percussion
По всем вопросам пишите личное сообщение пользователю M0p94ok.
02:51
150
Нет комментариев. Ваш будет первым!